На всех торрентах на трекере установлена скидка на скачивание в размере 100 процентов(а).
 Возможность скачивания торрента НЕ зависит от ограничений при низком ратио, низком аплоаде, требуемом ратио или требуемом аплоаде.


Начать новую тему Ответить на тему
Статистика раздачи
Размер: 396.68 МБ | Добавлен: 03 июл 2018, 22:26 | Скачали: 2
Сидеров: 14  [0 байт/сек]    Личеров: 5  [0 байт/сек]
Пред. тема | След. тема 

Автор
Сообщение

СообщениеДобавлено: 03 июл 2018, 22:26 

Ответить с цитатой 

ALEX & Megan McDuffee - Hero




• Формат записи | Источник записи: [TR24][OF]
• Наличие водяных знаков: Нет
• Страна-производитель релиза: USA
• Год издания релиза: 2018
• Жанр: Synthpop
• Издатель (лейбл): NewRetroWave
• Продолжительность: 00:44:14
• WEB релиз: bandcamp
• Контейнер: FLAC (*.flac)
• Тип рипа: tracks
• Разрядность: 24/44,1
• Формат: WAV (flac.ape.wv)
• Количество каналов: 2.0
• Наличие сканов: front

01 - Quest (00:05:13)
02 - Power Up (00:04:17)
03 - Continue (00:03:29)
04 - Hero (00:04:08)
05 - Love Story (00:04:51)
06 - Destinies (00:04:29)
07 - Fable (00:04:46)
08 - Avenger (00:04:31)
09 - Arcane Life (00:03:32)
10 - Journey (00:04:52)


Код:
foobar2000 1.3.17 / Замер динамического диапазона (DR) 1.1.1
Дата отчёта:  2018-06-30 12:23:16
--------------------------------------------------------------------------------
Анализ:   ALEX & Megan McDuffee / Hero
--------------------------------------------------------------------------------
DR         Пики         RMS           Продолжительность трека
--------------------------------------------------------------------------------
DR6       -0.45 дБ    -8.38 дБ      5:13 01-Quest
DR8       -0.45 дБ   -10.60 дБ      4:18 02-Power Up
DR7       -0.45 дБ    -7.79 дБ      3:30 03-Continue
DR6       -0.45 дБ    -7.52 дБ      4:08 04-Hero
--------------------------------------------------------------------------------
Количество треков: 4
Реальные значения DR: DR6
Частота:   44100 Гц
Каналов:   2
Разрядность:   24
Битрейт:   1581 кбит/с
Кодек:   FLAC
================================================================================
--------------------------------------------------------------------------------
Анализ:   ALEX & Megan McDuffee / Hero
--------------------------------------------------------------------------------
DR         Пики         RMS           Продолжительность трека
--------------------------------------------------------------------------------
DR7       -0.07 дБ    -8.53 дБ      4:51 05-Love Story
DR6       -0.04 дБ    -7.98 дБ      4:30 06-Destinies
--------------------------------------------------------------------------------
Количество треков: 2
Реальные значения DR: DR7
Частота:   44100 Гц
Каналов:   2
Разрядность:   16
Битрейт:   888 кбит/с
Кодек:   FLAC
================================================================================
--------------------------------------------------------------------------------
Статистика для:  07-Fable
Количество сэмплов: 12646478
Продолжительность: 4:47
--------------------------------------------------------------------------------
           Левый             Правый
Пики:               -0.45 дБ     ---     -0.45 дБ
Средний RMS:              -9.32 дБ     ---     -9.30 дБ
DR канала:               7.17 дБ     ---      7.14 дБ
--------------------------------------------------------------------------------
Реальные значения DR: DR7
Частота:   44100 Гц
Каналов:   2
Разрядность:   24
Битрейт:   1641 кбит/с
Кодек:   FLAC
================================================================================
--------------------------------------------------------------------------------
Анализ:   ALEX & Megan McDuffee / Hero
--------------------------------------------------------------------------------
DR         Пики         RMS           Продолжительность трека
--------------------------------------------------------------------------------
DR7       -0.09 дБ    -8.21 дБ      4:32 08-Avenger
DR5        0.00 дБ    -7.15 дБ      3:33 09-Arcane Life
DR7       -0.08 дБ    -9.54 дБ      4:53 10-Journey
--------------------------------------------------------------------------------
Количество треков: 3
Реальные значения DR: DR6
Частота:   44100 Гц
Каналов:   2
Разрядность:   16
Битрейт:   899 кбит/с
Кодек:   FLAC
================================================================================


Код:
-----------------------
DON'T MODIFY THIS FILE
-----------------------
PERFORMER: auCDtect Task Manager, ver. 1.6.0 RC1 build 1.6.0.1
Copyright (c) 2008-2010 y-soft. All rights reserved
[url=http://y-soft.org]http://y-soft.org[/url]
ANALYZER: auCDtect: CD records authenticity detector, version 0.8.2
Copyright (c) 2004 Oleg Berngardt. All rights reserved.
Copyright (c) 2004 Alexander Djourik. All rights reserved.
FILE: 10 - Journey.flac
  Size: 32998637 Hash: 387CFDC6C0D7041E7DF5D3BF458338F6 Accuracy: -m0
  Conclusion: CDDA 100%
  Signature: 742B0C02EF9019AF1AE19CE04667AD8BD2D50CA5
FILE: 09 - Arcane Life.flac
  Size: 24206090 Hash: 0C17BB96A2DD6723D9B4BA81888A4176 Accuracy: -m0
  Conclusion: CDDA 100%
  Signature: 0BA277F8AE11D1D9C99B4EC933A8A1151F310445
FILE: 08 - Avenger.flac
  Size: 26550786 Hash: CB080D539D01078C6535CCCCCF94A0E0 Accuracy: -m0
  Conclusion: CDDA 99%
  Signature: CE2E72B03C9951B4D5A4E71C9899BAF668D7FD0C
FILE: 06 - Destinies.flac
  Size: 30033896 Hash: D7CFF833AA7E2180FF72CBC34FF40A26 Accuracy: -m0
  Conclusion: MPEG 95%
  Signature: B4EA8354B4ECABB5238B4547ED1A26006EA79B20
FILE: 05 - Love Story.flac
  Size: 31827003 Hash: D11C6215F55F7B69FFD0ECB3D30531B3 Accuracy: -m0
  Conclusion: MPEG 95%
  Signature: 4372A9422BBC228A3B8D3CE67F55EE33A2427B05




Правила, инструкции, FAQ!!!
Торрент  Добавлен [03 июл 2018, 22:26] Скачать торрент Магнет ссылка
Скачать торрент
[ Размер 16.51 КБ / Просмотров 54 ]

Статус
Проверен 
 
Размер  396.68 МБ
Приватный: Нет (DHT включён)
.torrent скачан  2
Как залить торрент? | Как скачать Torrent? | Ошибка в торренте? Качайте магнет  


     Отправить личное сообщение
   
Страница 1 из 1
Показать сообщения за:  Поле сортировки  
Начать новую тему Ответить на тему

   Похожие торренты   Автор   Ответы   Просмотры   Последнее сообщение 
В этой теме нет новых непрочитанных сообщений. Скачать торрент Проверен Laszlo - Cartoon Hero (2015) [MP3|320 кб/с]<Synthpop>

в форуме Зарубежная музыка, Размер: 87.62 МБ, Здоровье: 84%

Гость

0
16|19

43
5

28 авг 2015, 21:55

Гость Перейти к последнему сообщению

В этой теме нет новых непрочитанных сообщений. Скачать торрент Проверен (Pop / Synthpop) Bonnie Tyler - Holding Out For A Hero (CD-Maxi) - 1991, FLAC (image+.cue), lossless

в форуме Зарубежная музыка, Размер: 111.24 МБ, Здоровье: 100%

Anonymous

0
8|3

70
1

16 авг 2016, 23:11

Anonymous Перейти к последнему сообщению

В этой теме нет новых непрочитанных сообщений. Скачать торрент Проверен [TR24][OF] Krrum - Honeymoon - 2018 (SynthPop, Alternative)

в форуме Hi-Res stereo (Электронная музыка), Размер: 547.18 МБ, Здоровье: 0%

Anonymous

0
0|0

4
0

03 июл 2018, 22:09

Anonymous Перейти к последнему сообщению

В этой теме нет новых непрочитанных сообщений. Скачать торрент Проверен [TR24][OF] Omnimar - Forever (Single) - 2018 (Darkwave, SynthPop)

в форуме Hi-Res stereo (Электронная музыка), Размер: 76.1 МБ, Здоровье: 100%

Anonymous

0
1|0

5
0

27 окт 2018, 23:04

Anonymous Перейти к последнему сообщению

В этой теме нет новых непрочитанных сообщений. Скачать торрент Проверен [TR24][OF] Sferro - Wetware Computer 2 (EP) - 2018 (Synthpop, Cyberpunk)

в форуме Hi-Res stereo (Электронная музыка), Размер: 219.55 МБ, Здоровье: 63%

Anonymous

0
7|11

11
1

27 окт 2018, 23:05

Anonymous Перейти к последнему сообщению



Сейчас этот форум просматривают: нет зарегистрированных пользователей и гости: 1


Вы не можете начинать темы
Вы не можете отвечать на сообщения
Вы не можете редактировать свои сообщения
Вы не можете удалять свои сообщения
Вы не можете добавлять вложения

Перейти:  
Ресурс не предоставляет электронные версии произведений, а занимается лишь коллекционированием и каталогизацией ссылок, присылаемых и публикуемых на форуме нашими читателями. Если вы являетесь правообладателем какого-либо представленного материала и не желаете чтобы ссылка на него находилась в нашем каталоге, свяжитесь с нами и мы незамедлительно удалим её. Файлы для обмена на трекере предоставлены пользователями сайта, и администрация не несёт ответственности за их содержание. Просьба не заливать файлы, защищенные авторскими правами, а также файлы нелегального содержания!
cron