На всех торрентах на трекере установлена скидка на скачивание в размере 100 процентов(а).
 Возможность скачивания торрента НЕ зависит от ограничений при низком ратио, низком аплоаде, требуемом ратио или требуемом аплоаде.


Начать новую тему Ответить на тему
Статистика раздачи
Размер: 4.07 ГБ | Добавлен: 12 янв 2014, 18:57 | Скачали: 6
Сидеров: 376  [0 байт/сек]    Личеров: 15  [0 байт/сек]
Пред. тема | След. тема 

Автор
Сообщение

СообщениеДобавлено: 12 янв 2014, 18:57 

Ответить с цитатой 

Оригинальное название: Beyonce - Live In Atlantic City
Год выпуска: 2013
Жанр: R'n'B, pop
Исполнитель: Бейонсе Ноулз

Описание: Долгожданный для всех поклонников Бейонсе (Beyonce) концерт в Атлантик-Сити, который прошел 26 сентября 2012 года. Шоу, как и новая песня "God Made You Beautiful стали дополнением в документальному фильму певицы "Life Is But A Dream"

Страна: США
Студия: Parkwood Entertainment
Продолжительность: 01:15:08


Качество: BDRip 720p
Видео: MPEG-4 AVC, 4000 Кбит/с, 1280x390, 23.976 кадр/с
Аудио #1: Английский (AC3, 6 ch, 640 Кбит/с)
Аудио #2: Английский (DTS, 6 ch, 1509 Кбит/с)
Аудио #3: Английский (FLAC, 2 ch, 1610 Кбит/с) - отдельно

Семпл



01. End of Time
02. Get Me Bodied
03. Baby Boy
04. Crazy in Love
05. Diva
06. Naughty Girl
07. Party
08. Dance For You
09. Freakum Dress
10. I Care
11. Schoolin' Life
12. 1 + 1
13. Flaws and All
14. Countdown
15. Run the World (Girls)
16. I Was Here
17. I Will Always Love You
18. Halo
19. Single Ladies
20. Green Light
21. Love on Top
Общее
Уникальный идентификатор : 205678245033095658943303187661028864531 (0x9ABC3068FA2BC9FEA0828B71FB843213)
Полное имя : D:Mои раздачиBeyonce- Live.In.Atlantic.City.2013.BDRip.720p-MediaClubBeyonce-Live.In.Atlantic.City.2013.BDRip.(720p)-MediaClub.mkv
Формат : Matroska
Версия формата : Version 4 / Version 2
Размер файла : 3,23 Гбайт
Продолжительность : 1 ч. 15 м.
Общий поток : 6149 Кбит/сек
Название фильма : -=MediaClub-kaspr=-
Дата кодирования : UTC 2014-01-11 13:49:00
Программа кодирования : mkvmerge v6.1.0 ('Old Devil') built on Mar 4 2013 09:10:42
Библиотека кодирования : libebml v1.3.0 + libmatroska v1.4.0

Видео
Идентификатор : 1
Формат : AVC
Формат/Информация : Advanced Video Codec
Профиль формата : High@L4.1
Параметр CABAC формата : Да
Параметр ReFrames формата : 9 кадров
Идентификатор кодека : V_MPEG4/ISO/AVC
Продолжительность : 1 ч. 15 м.
Битрейт : 4000 Кбит/сек
Ширина : 1280 пикселей
Высота : 390 пикселей
Соотношение сторон : 3,282
Режим частоты кадров : Постоянный
Частота кадров : 23,976 кадра/сек
Цветовое пространство : YUV
Субдискретизация насыщенности : 4:2:0
Битовая глубина : 8 бит
Тип развёртки : Прогрессивная
Бит/(Пиксели*Кадры) : 0.334
Размер потока : 2,04 Гбайт (63%)
Заголовок : -=MediaClub-kaspr=-
Библиотека кодирования : x264 core 130 r2273 b3065e6
Настройки программы : cabac=1 / ref=9 / deblock=1:-3:-3 / analyse=0x3:0x133 / me=umh / subme=11 / psy=1 / psy_rd=1.00:0.20 / mixed_ref=1 / me_range=48 / chroma_me=1 / trellis=2 / 8x8dct=1 / cqm=0 / deadzone=21,11 / fast_pskip=0 / chroma_qp_offset=-3 / threads=12 / lookahead_threads=3 / sliced_threads=0 / nr=0 / decimate=0 / interlaced=0 / bluray_compat=0 / constrained_intra=0 / bframes=10 / b_pyramid=2 / b_adapt=2 / b_bias=0 / direct=3 / weightb=1 / open_gop=0 / weightp=2 / keyint=240 / keyint_min=23 / scenecut=40 / intra_refresh=0 / rc=2pass / mbtree=0 / bitrate=4000 / ratetol=1.0 / qcomp=0.60 / qpmin=0 / qpmax=69 / qpstep=4 / cplxblur=20.0 / qblur=0.5 / ip_ratio=1.40 / pb_ratio=1.30 / aq=1:1.00
Default : Да
Forced : Да

Аудио #1
Идентификатор : 2
Формат : AC-3
Формат/Информация : Audio Coding 3
Расширение режима : CM (complete main)
Параметр Endianness формата : Big
Идентификатор кодека : A_AC3
Продолжительность : 1 ч. 15 м.
Вид битрейта : Постоянный
Битрейт : 640 Кбит/сек
Каналы : 6 каналов
Расположение каналов : Front: L C R, Side: L R, LFE
Частота : 48,0 КГц
Битовая глубина : 16 бит
Метод сжатия : С потерями
Размер потока : 344 Мбайт (10%)
Заголовок : AC3
Язык : English
Default : Да
Forced : Да

Аудио #2
Идентификатор : 3
Формат : DTS
Формат/Информация : Digital Theater Systems
Режим : 16
Параметр Endianness формата : Big
Идентификатор кодека : A_DTS
Продолжительность : 1 ч. 15 м.
Вид битрейта : Постоянный
Битрейт : 1509 Кбит/сек
Каналы : 6 каналов
Расположение каналов : Front: L C R, Side: L R, LFE
Частота : 48,0 КГц
Битовая глубина : 24 бит
Метод сжатия : С потерями
Размер потока : 811 Мбайт (25%)
Заголовок : DTS
Язык : English
Default : Нет
Forced : Нет

Меню
00:00:00.000 : en:Chapter 01
00:05:53.436 : en:Chapter 02
00:07:20.314 : en:Chapter 03
00:10:05.021 : en:Chapter 04
00:13:15.211 : en:Chapter 05
00:16:04.004 : en:Chapter 06
00:20:55.420 : en:Chapter 07
00:24:16.079 : en:Chapter 08
00:27:53.505 : en:Chapter 09
00:30:45.260 : en:Chapter 10
00:35:14.112 : en:Chapter 11
00:38:11.288 : en:Chapter 12
00:45:26.348 : en:Chapter 13
00:50:33.488 : en:Chapter 14
00:51:21.328 : en:Chapter 15
00:54:38.274 : en:Chapter 16
00:56:40.438 : en:Chapter 17
00:58:28.505 : en:Chapter 18
01:05:20.291 : en:Chapter 19
01:10:04.158 : en:Chapter 20
01:12:37.353 : en:Chapter 21

Общее
Полное имя : D:Mои раздачиBeyonce- Live.In.Atlantic.City.2013.BDRip.720p-MediaClubFLAC-Beyonce- Live.In.Atlantic.City.2013.flac
Формат : FLAC
Формат/Информация : Free Lossless Audio Codec
Размер файла : 866 Мбайт
Продолжительность : 1 ч. 15 м.
Режим общего битрейта : Переменный
Общий поток : 1610 Кбит/сек

Аудио
Формат : FLAC
Формат/Информация : Free Lossless Audio Codec
Продолжительность : 1 ч. 15 м.
Вид битрейта : Переменный
Битрейт : 1610 Кбит/сек
Каналы : 2 канала
Частота : 48,0 КГц
Битовая глубина : 24 бит
Размер потока : 866 Мбайт (100%)
Библиотека кодирования : libFLAC 1.2.1 (UTC 2007-09-17)

Релиз: |
Правила, инструкции, FAQ!!!
Торрент  Добавлен [12 янв 2014, 18:57] Скачать торрент Магнет ссылка
Скачать торрент
[ Размер 10.94 КБ / Просмотров 33 ]

Статус  
 
Размер  4.07 ГБ
Приватный: Нет (DHT включён)
.torrent скачан  6
Как залить торрент? | Как скачать Torrent? | Ошибка в торренте? Качайте магнет  


     Отправить личное сообщение
   
Страница 1 из 1
Показать сообщения за:  Поле сортировки  
Начать новую тему Ответить на тему

   Похожие торренты   Автор   Ответы   Просмотры   Последнее сообщение 
В этой теме нет новых непрочитанных сообщений. Скачать торрент Проверен Beyonce - Beyonce; (2013) [24/48 BDremux audio FLAC|Lossless]<Pop, R&B, Soul>

в форуме Vinyl-Rip и Hand-Made, Размер: 1012.77 МБ, Здоровье: 0%

Гость

0
1|284

631
0

08 фев 2015, 00:34

Гость Перейти к последнему сообщению

В этой теме нет новых непрочитанных сообщений. Скачать торрент Проверен Beyonce - Beyonce (2013) [FLAC|Lossless]<R&B, Pop>

в форуме Зарубежная музыка, Размер: 396.58 МБ, Здоровье: 100%

Гость

0
4|3

159
1

12 янв 2015, 22:10

Гость Перейти к последнему сообщению

В этой теме нет новых непрочитанных сообщений. Скачать торрент Проверен Dave Matthews and Tim Reynolds: Live at Radio City [2007, Rock, BDRip 720p]

в форуме Концерты (HD-Video), Размер: 6.54 ГБ, Здоровье: 100%

Anonymous

0
5|2

51
1

23 окт 2016, 16:08

Anonymous Перейти к последнему сообщению

В этой теме нет новых непрочитанных сообщений. Скачать торрент Проверен (Southern Rock) Lynyrd Skynyrd - Live in Atlantic City - 2018, MP3, 320 kbps

в форуме Classic Rock & Hard Rock, Размер: 156.74 МБ, Здоровье: 100%

Anonymous

0
20|7

5
1

18 окт 2018, 09:29

Anonymous Перейти к последнему сообщению

В этой теме нет новых непрочитанных сообщений. Скачать торрент Проверен Heaven and Hell - Radio City Music Hall Live! [2011, Hard Rock, BDRip 720p]

в форуме Концерты (HD-Video), Размер: 6.67 ГБ, Здоровье: 100%

Гость

0
11|3

87
1

29 апр 2015, 19:15

Гость Перейти к последнему сообщению



Сейчас этот форум просматривают: нет зарегистрированных пользователей и гости: 0


Вы не можете начинать темы
Вы не можете отвечать на сообщения
Вы не можете редактировать свои сообщения
Вы не можете удалять свои сообщения
Вы не можете добавлять вложения

Перейти:  
Ресурс не предоставляет электронные версии произведений, а занимается лишь коллекционированием и каталогизацией ссылок, присылаемых и публикуемых на форуме нашими читателями. Если вы являетесь правообладателем какого-либо представленного материала и не желаете чтобы ссылка на него находилась в нашем каталоге, свяжитесь с нами и мы незамедлительно удалим её. Файлы для обмена на трекере предоставлены пользователями сайта, и администрация не несёт ответственности за их содержание. Просьба не заливать файлы, защищенные авторскими правами, а также файлы нелегального содержания!
cron