На всех торрентах на трекере установлена скидка на скачивание в размере 100 процентов(а).
 Возможность скачивания торрента НЕ зависит от ограничений при низком ратио, низком аплоаде, требуемом ратио или требуемом аплоаде.


Начать новую тему Ответить на тему
Статистика раздачи
Размер: 3.39 ГБ | Добавлен: 23 окт 2016, 12:26 | Скачали: 0
Сидеров: 1  [0 байт/сек]    Личеров: 0  [0 байт/сек]
Пред. тема | След. тема 

Автор
Сообщение

СообщениеДобавлено: 23 окт 2016, 12:26 

Ответить с цитатой 

Birdy - Live at Baloise Session 2013

Жанр: Folk/Indie folk/Indie pop/Indie rock
Продолжительность: 00:53:50
Год выпуска: 2014

Описание: Выступление британской автора и исполнительницы Birdy (Jasmine van den Bogaerde) на музыкальном фестивале Baloise Session в швейцарском Базеле 2013 nov04

Доп. информация: Собственная запись со спутникового канала ProSieben Fun 2014 oct03

Треклист: Strange Birds
People Help the People
Shelter
Learn Me Right
All About You
Heart of Gold
Words As Weapons
No Angel
Young Blood
Standing in the Way of the Light
Skinny Love
Light Me Up
Wings

Качество: HDTV 1080i
Контейнер: TS
Видео кодек: H.264
Аудио кодек: AC3
Видео: Mpeg4 AVC, 1920x1080, 8170 kbps, 25 fps
Аудио: AC3, 384 kbps, 48 kHz, stereo
Код:
General
ID                                       : 1 (0x1)
Complete name                            : D:\Downloads\Birdy - Live at Baloise Session 2013.ts
Format                                   : MPEG-TS
File size                                : 3.39 GiB
Duration                                 : 53mn 50s
Overall bit rate mode                    : Variable
Overall bit rate                         : 9 006 Kbps

Video
ID                                       : 1279 (0x4FF)
Menu ID                                  : 1 (0x1)
Format                                   : AVC
Format/Info                              : Advanced Video Codec
Format profile                           : High@L4.0
Format settings, CABAC                   : Yes
Format settings, ReFrames                : 3 frames
Codec ID                                 : 27
Duration                                 : 53mn 50s
Bit rate                                 : 8 173 Kbps
Width                                    : 1 920 pixels
Height                                   : 1 080 pixels
Display aspect ratio                     : 16:9
Frame rate                               : 25.000 fps
Standard                                 : Component
Color space                              : YUV
Chroma subsampling                       : 4:2:0
Bit depth                                : 8 bits
Scan type                                : Interlaced
Scan order                               : Top Field First
Bits/(Pixel*Frame)                       : 0.158
Stream size                              : 3.07 GiB (91%)
Color primaries                          : BT.709
Transfer characteristics                 : BT.709
Matrix coefficients                      : BT.709

Audio
ID                                       : 1283 (0x503)
Menu ID                                  : 1 (0x1)
Format                                   : AC-3
Format/Info                              : Audio Coding 3
Mode extension                           : CM (complete main)
Format settings, Endianness              : Big
Codec ID                                 : 6
Duration                                 : 53mn 50s
Bit rate mode                            : Constant
Bit rate                                 : 384 Kbps
Channel(s)                               : 2 channels
Channel positions                        : Front: L R
Sampling rate                            : 48.0 KHz
Bit depth                                : 16 bits
Compression mode                         : Lossy
Stream size                              : 148 MiB (4%)
Language                                 : German

Text
ID                                       : 32 (0x20)-100
Menu ID                                  : 1 (0x1)
Format                                   : Teletext
Language                                 : German

Menu
ID                                       : 100 (0x64)
Menu ID                                  : 1 (0x1)
Duration                                 : 53mn 50s
List                                     : 1279 (0x4FF) (AVC) / 1283 (0x503) (AC-3, German) / 32 (0x20) ()
Language                                 :  / German
Правила, инструкции, FAQ!!!
Торрент  Добавлен [23 окт 2016, 12:26] Скачать торрент Магнет ссылка
Скачать торрент
[ Размер 17.41 КБ / Просмотров 14 ]

Статус
Проверен 
 
Размер  3.39 ГБ
Приватный: Нет (DHT включён)
.torrent скачан  0
Как залить торрент? | Как скачать Torrent? | Ошибка в торренте? Качайте магнет  


     Отправить личное сообщение
   
Страница 1 из 1
Показать сообщения за:  Поле сортировки  
Начать новую тему Ответить на тему

   Похожие торренты   Автор   Ответы   Просмотры   Последнее сообщение 
В этой теме нет новых непрочитанных сообщений. Скачать торрент Проверен Birdy • Live At Baloise Session [2014, Indie pop, Indie rock, HDTV 720p]

в форуме Концерты (HD-Video), Размер: 3.91 ГБ, Здоровье: 100%

Anonymous

0
5|2

37
1

23 окт 2016, 11:59

Anonymous Перейти к последнему сообщению

В этой теме нет новых непрочитанных сообщений. Скачать торрент Проверен Birdy • Live ZDF@Bauhaus [2013, Indie pop, Indie rock, HDTV 720p]

в форуме Концерты (HD-Video), Размер: 5.28 ГБ, Здоровье: 100%

Anonymous

0
3|3

48
0

23 окт 2016, 11:58

Anonymous Перейти к последнему сообщению

В этой теме нет новых непрочитанных сообщений. Скачать торрент Проверен Jake Bugg • Glastonbury Festival [2014, Indie folk, Indie rock, HDTV 1080i]

в форуме Концерты (HD-Video), Размер: 2.79 ГБ, Здоровье: 100%

Anonymous

0
3|1

37
0

23 окт 2016, 11:37

Anonymous Перейти к последнему сообщению

В этой теме нет новых непрочитанных сообщений. Скачать торрент Проверен Birdy • SWR3 New Pop Festival [2013, Indie pop, Indie rock, HDTV 720p]

в форуме Концерты (HD-Video), Размер: 4.01 ГБ, Здоровье: 100%

Anonymous

0
2|0

45
0

23 окт 2016, 12:21

Anonymous Перейти к последнему сообщению

В этой теме нет новых непрочитанных сообщений. Скачать торрент Проверен The National. Southside Festival 2013 [2014, Indie rock/Post-punk revival/Indie folk/Chamber, HDTV 720p]

в форуме Концерты (HD-Video), Размер: 4.48 ГБ, Здоровье: 100%

Anonymous

0
2|0

39
0

23 окт 2016, 14:24

Anonymous Перейти к последнему сообщению



Сейчас этот форум просматривают: нет зарегистрированных пользователей и гости: 1


Вы не можете начинать темы
Вы не можете отвечать на сообщения
Вы не можете редактировать свои сообщения
Вы не можете удалять свои сообщения
Вы не можете добавлять вложения

Перейти:  
Ресурс не предоставляет электронные версии произведений, а занимается лишь коллекционированием и каталогизацией ссылок, присылаемых и публикуемых на форуме нашими читателями. Если вы являетесь правообладателем какого-либо представленного материала и не желаете чтобы ссылка на него находилась в нашем каталоге, свяжитесь с нами и мы незамедлительно удалим её. Файлы для обмена на трекере предоставлены пользователями сайта, и администрация не несёт ответственности за их содержание. Просьба не заливать файлы, защищенные авторскими правами, а также файлы нелегального содержания!
cron