На всех торрентах на трекере установлена скидка на скачивание в размере 100 процентов(а).
 Возможность скачивания торрента НЕ зависит от ограничений при низком ратио, низком аплоаде, требуемом ратио или требуемом аплоаде.


Начать новую тему Ответить на тему
Статистика раздачи
Размер: 4.37 ГБ | Добавлен: 18 янв 2014, 16:53 | Скачали: 1
Сидеров: 3  [0 байт/сек]    Личеров: 1  [0 байт/сек]
Пред. тема | След. тема 

Автор
Сообщение

СообщениеДобавлено: 18 янв 2014, 16:53 

Ответить с цитатой 

Bon Jovi - In Concert BBC Radio 2

Жанр: Rock
Продолжительность: 59:52
Год выпуска: 2013

Описание: Живое выступление на канале BBC Radio 2 в январе 2013

Setlist:
01. Lost Highway
02. Because We Can
03. It's My Life
04. What About Now
05. We Got It Goin' On
06. Amen
07. You Give Love a Bad Name
08. Livin' On A Prayer
09. We Weren't Born to Follow
10. That's What the Water Made Me
11. I'm With You
12. Who Says You Can't Go Home
13. Wanted Dead or Alive

Качество: HDTV 1080i
Контейнер: TS
Видео кодек: H.264
Аудио кодек: AC3
Видео: AVC (H.264) | 1920x1080 | 25 fps | 10.5 Mbps,
Аудио: AC-3 | 48.0 KHz | 384 Kbps (2 Ch.)
Отчёт MediaInfo / BDInfo
Код:
General
ID                             : 1 (0x1)
Complete name                  : D:\Bon Jovi - In Concert BBC London 2013.ts
Format                         : MPEG-TS
File size                      : 4.37 GiB
Duration                       : 59mn 51s
Overall bit rate mode          : Variable
Overall bit rate               : 10.5 Mbps

Video
ID                             : 359 (0x167)
Menu ID                        : 1 (0x1)
Format                         : AVC
Format/Info                    : Advanced Video Codec
Format profile                 : Main@L4.0
Format settings, CABAC         : Yes
Format settings, ReFrames      : 4 frames
Codec ID                       : 27
Duration                       : 59mn 51s
Bit rate                       : 9 546 Kbps
Width                          : 1 920 pixels
Height                         : 1 080 pixels
Display aspect ratio           : 16:9
Frame rate                     : 25.000 fps
Standard                       : Component
Color space                    : YUV
Chroma subsampling             : 4:2:0
Bit depth                      : 8 bits
Scan type                      : Interlaced
Bits/(Pixel*Frame)             : 0.184
Stream size                    : 3.99 GiB (91%)
Color primaries                : BT.709
Transfer characteristics       : BT.709
Matrix coefficients            : BT.709

Audio
ID                             : 376 (0x178)
Menu ID                        : 1 (0x1)
Format                         : AC-3
Format/Info                    : Audio Coding 3
Mode extension                 : CM (complete main)
Format settings, Endianness    : Big
Codec ID                       : 6
Duration                       : 59mn 51s
Bit rate mode                  : Constant
Bit rate                       : 384 Kbps
Channel count                  : 2 channels
Channel positions              : Front: L R
Sampling rate                  : 48.0 KHz
Bit depth                      : 16 bits
Compression mode               : Lossy
Stream size                    : 164 MiB (4%)
Language                       : Polish
Скриншоты
Правила, инструкции, FAQ!!!
Торрент  Добавлен [18 янв 2014, 16:53] Скачать торрент Магнет ссылка
Скачать торрент
[ Размер 11.43 КБ / Просмотров 40 ]

Статус  
 
Размер  4.37 ГБ
Приватный: Нет (DHT включён)
.torrent скачан  1
Как залить торрент? | Как скачать Torrent? | Ошибка в торренте? Качайте магнет  


     Отправить личное сообщение
   
Страница 1 из 1
Показать сообщения за:  Поле сортировки  
Начать новую тему Ответить на тему

   Похожие торренты   Автор   Ответы   Просмотры   Последнее сообщение 
В этой теме нет новых непрочитанных сообщений. Скачать торрент Проверен Bon Jovi - Because We Can [2013, Hard rock, HDTV 1080i]

в форуме Концерты (HD-Video), Размер: 260.22 МБ, Здоровье: 75%

Anonymous

0
3|4

56
0

23 окт 2016, 16:25

Anonymous Перейти к последнему сообщению

В этой теме нет новых непрочитанных сообщений. Скачать торрент Проверен Bon Jovi - Rock in Rio V [2013, Hard rock, HDTV 1080i]

в форуме Концерты (HD-Video), Размер: 8.3 ГБ, Здоровье: 100%

Anonymous

0
22|9

26
1

23 окт 2016, 15:37

Anonymous Перейти к последнему сообщению

В этой теме нет новых непрочитанных сообщений. Скачать торрент Проверен Elton John - In Concert 2013 [2014, Pop/Rock, HDTV 1080i]

в форуме Концерты (HD-Video), Размер: 3.84 ГБ, Здоровье: 40%

Anonymous

0
9|22

282
6

23 окт 2016, 13:34

Anonymous Перейти к последнему сообщению

В этой теме нет новых непрочитанных сообщений. Скачать торрент Проверен Bon Jovi - Lost Highway. The Concert (Soundstage Series) [2007, rock, HDTV 1080p]

в форуме Концерты (HD-Video), Размер: 3.48 ГБ, Здоровье: 100%

Anonymous

0
9|2

63
0

23 окт 2016, 15:32

Anonymous Перейти к последнему сообщению

В этой теме нет новых непрочитанных сообщений. Скачать торрент Проверен Bon Jovi - Live at VH1 Unplugged [2007, Rock, HDTV, 1080i]

в форуме Концерты (HD-Video), Размер: 1.79 ГБ, Здоровье: 62%

Anonymous

0
5|8

53
0

23 окт 2016, 19:07

Anonymous Перейти к последнему сообщению



Сейчас этот форум просматривают: нет зарегистрированных пользователей и гости: 1


Вы не можете начинать темы
Вы не можете отвечать на сообщения
Вы не можете редактировать свои сообщения
Вы не можете удалять свои сообщения
Вы не можете добавлять вложения

Перейти:  
Ресурс не предоставляет электронные версии произведений, а занимается лишь коллекционированием и каталогизацией ссылок, присылаемых и публикуемых на форуме нашими читателями. Если вы являетесь правообладателем какого-либо представленного материала и не желаете чтобы ссылка на него находилась в нашем каталоге, свяжитесь с нами и мы незамедлительно удалим её. Файлы для обмена на трекере предоставлены пользователями сайта, и администрация не несёт ответственности за их содержание. Просьба не заливать файлы, защищенные авторскими правами, а также файлы нелегального содержания!
cron