На всех торрентах на трекере установлена скидка на скачивание в размере 100 процентов(а).
 Возможность скачивания торрента НЕ зависит от ограничений при низком ратио, низком аплоаде, требуемом ратио или требуемом аплоаде.


Начать новую тему Ответить на тему
Статистика раздачи
Размер: 215.93 МБ | Добавлен: 05 авг 2018, 09:23 | Скачали: 0
Сидеров: 11  [0 байт/сек]    Личеров: 3  [0 байт/сек]
Пред. тема | След. тема 

Автор
Сообщение

СообщениеДобавлено: 05 авг 2018, 09:23 

Ответить с цитатой 



The Youngbloods - Elephant Mountain - 1969 (1989 MFSL)


Жанр: Classic Rock, Folk Rock, Soft Rock, Psychedelic Rock
Носитель: CD, Album, Remastered, Limited Edition, Reissue
Страна-производитель диска (релиза): Japan
Год издания оригинала: 1969
Год переиздания: 1989
Издатель (лейбл): Mobile Fidelity Sound Lab
Серия: Original Master Recording
Номер по каталогу: MFCD 792
Страна исполнителя (группы) : US
Дата / место записи: RCA's Music Center of the World in Hollywood, California.
Аудио кодек: FLAC (*.flac)
Тип рипа: (tracks + .cue)
Битрейт аудио: lossless
Наличие сканов в содержимом раздачи: full scans
Продолжительность: 39:54
Источник (релизер): REDacted
Трэклист:
1. Darkness, Darkness (Jesse Colin Young) - 3:51
2. Smug (Jesse Colin Young) - 2:13
3. On Sir Francis Drake (Lowell Levinger) - 6:44
4. Sunlight (Jesse Colin Young) - 3:07
5. Double Sunlight (Lowell Levinger / Jesse Colin Young) - 0:41
6. Beautiful (Jesse Colin Young) - 3:49
7. Turn It Over (Joe Bauer / Lowell Levinger / Jesse Colin Young) - 0:15
8. Rain Song (Don't Let the Rain Bring You Down) (Jerry Corbitt / Felix Pappalardi) - 3:13
9. Trillium (Joe Bauer / Lowell Levinger / Jesse Colin Young) - 3:08
10. Quicksand (Jesse Colin Young) - 2:41
11. Black Mountain Breakdown (Lowell Levinger / Jesse Colin Young) - 0:40
12. Sham (Jesse Colin Young) - 2:44
13. Ride the Wild (Jesse Colin Young) - 6:37
Код:
Exact Audio Copy V0.99 prebeta 5 from 4. May 2009
EAC extraction logfile from 3. September 2011, 17:40
The Youngbloods / Elephant Mountain (MFSL - MFCD 792)
Used drive  : HL-DT-STDVD-ROM GDRH20N   Adapter: 0  ID: 1
Read mode               : Secure
Utilize accurate stream : Yes
Defeat audio cache      : Yes
Make use of C2 pointers : No
Read offset correction                      : 102
Overread into Lead-In and Lead-Out          : No
Fill up missing offset samples with silence : Yes
Delete leading and trailing silent blocks   : No
Null samples used in CRC calculations       : Yes
Used interface                              : Native Win32 interface for Win NT & 2000
Gap handling                                : Appended to previous track
Used output format              : User Defined Encoder
Selected bitrate                : 1024 kBit/s
Quality                         : High
Add ID3 tag                     : No
Command line compressor         : C:\Program Files\Exact Audio Copy\FLAC\FLAC.EXE
Additional command line options : -6 -V -T "ARTIST=%a" -T "TITLE=%t" -T "ALBUM=%g" -T "DATE=%y" -T "TRACKNUMBER=%n" -T "GENRE=%m" -T "COMMENT=%e" %s -o %d
TOC of the extracted CD
     Track |   Start  |  Length  | Start sector | End sector
    ---------------------------------------------------------
        1  |  0:00.00 |  3:54.25 |         0    |    17574
        2  |  3:54.25 |  2:12.36 |     17575    |    27510
        3  |  6:06.61 |  6:45.14 |     27511    |    57899
        4  | 12:52.00 |  3:07.49 |     57900    |    71973
        5  | 15:59.49 |  0:41.02 |     71974    |    75050
        6  | 16:40.51 |  3:49.60 |     75051    |    92285
        7  | 20:30.36 |  0:15.13 |     92286    |    93423
        8  | 20:45.49 |  3:16.12 |     93424    |   108135
        9  | 24:01.61 |  3:09.00 |    108136    |   122310
       10  | 27:10.61 |  2:41.26 |    122311    |   134411
       11  | 29:52.12 |  0:40.03 |    134412    |   137414
       12  | 30:32.15 |  2:44.15 |    137415    |   149729
       13  | 33:16.30 |  6:37.70 |    149730    |   179574
Track  1
     Filename C:\Documents and Settings\David Swift\My Documents\My Music\WhatCD Torrent Uploads\The Youngbloods - Elephant Mountain (1969) [FLAC]\01 - Darkness, Darkness.wav
     Pre-gap length  0:00:02.00
     Peak level 92.3 %
     Track quality 100.0 %
     Test CRC BEC7BE98
     Copy CRC BEC7BE98
     Accurately ripped (confidence 14)  [CAB54797]
     Copy OK
Track  2
     Filename C:\Documents and Settings\David Swift\My Documents\My Music\WhatCD Torrent Uploads\The Youngbloods - Elephant Mountain (1969) [FLAC]\02 - Smug.wav
     Pre-gap length  0:00:01.33
     Peak level 92.6 %
     Track quality 99.9 %
     Test CRC AF9A453B
     Copy CRC AF9A453B
     Accurately ripped (confidence 14)  [40F6EBCB]
     Copy OK
Track  3
     Filename C:\Documents and Settings\David Swift\My Documents\My Music\WhatCD Torrent Uploads\The Youngbloods - Elephant Mountain (1969) [FLAC]\03 - On Sir Francis Drake.wav
     Peak level 93.5 %
     Track quality 100.0 %
     Test CRC 39CCE6DF
     Copy CRC 39CCE6DF
     Accurately ripped (confidence 14)  [827D36B8]
     Copy OK
Track  4
     Filename C:\Documents and Settings\David Swift\My Documents\My Music\WhatCD Torrent Uploads\The Youngbloods - Elephant Mountain (1969) [FLAC]\04 - Sunlight.wav
     Peak level 76.8 %
     Track quality 100.0 %
     Test CRC 3E515893
     Copy CRC 3E515893
     Accurately ripped (confidence 14)  [6832E511]
     Copy OK
Track  5
     Filename C:\Documents and Settings\David Swift\My Documents\My Music\WhatCD Torrent Uploads\The Youngbloods - Elephant Mountain (1969) [FLAC]\05 - Double Sunlight.wav
     Peak level 54.7 %
     Track quality 100.0 %
     Test CRC EECD2D00
     Copy CRC EECD2D00
     Accurately ripped (confidence 14)  [5A619311]
     Copy OK
Track  6
     Filename C:\Documents and Settings\David Swift\My Documents\My Music\WhatCD Torrent Uploads\The Youngbloods - Elephant Mountain (1969) [FLAC]\06 - Beautiful.wav
     Peak level 89.3 %
     Track quality 99.9 %
     Test CRC 85163E35
     Copy CRC 85163E35
     Accurately ripped (confidence 14)  [23E5C5B2]
     Copy OK
Track  7
     Filename C:\Documents and Settings\David Swift\My Documents\My Music\WhatCD Torrent Uploads\The Youngbloods - Elephant Mountain (1969) [FLAC]\07 - Turn It Over.wav
     Pre-gap length  0:00:04.48
     Peak level 66.7 %
     Track quality 100.0 %
     Test CRC DAF357A0
     Copy CRC DAF357A0
     Accurately ripped (confidence 14)  [E3B50F2E]
     Copy OK
Track  8
     Filename C:\Documents and Settings\David Swift\My Documents\My Music\WhatCD Torrent Uploads\The Youngbloods - Elephant Mountain (1969) [FLAC]\08 - Rain Song (Don't Let The Rain Bring You Down).wav
     Pre-gap length  0:00:02.32
     Peak level 84.8 %
     Track quality 100.0 %
     Test CRC 00617DD1
     Copy CRC 00617DD1
     Accurately ripped (confidence 14)  [61EEAA67]
     Copy OK
Track  9
     Filename C:\Documents and Settings\David Swift\My Documents\My Music\WhatCD Torrent Uploads\The Youngbloods - Elephant Mountain (1969) [FLAC]\09 - Trillium.wav
     Pre-gap length  0:00:02.65
     Peak level 72.7 %
     Track quality 100.0 %
     Test CRC 86CC0D28
     Copy CRC 86CC0D28
     Accurately ripped (confidence 14)  [724FD070]
     Copy OK
Track 10
     Filename C:\Documents and Settings\David Swift\My Documents\My Music\WhatCD Torrent Uploads\The Youngbloods - Elephant Mountain (1969) [FLAC]\10 - Quicksand.wav
     Peak level 78.9 %
     Track quality 99.9 %
     Test CRC FEE7CF03
     Copy CRC FEE7CF03
     Accurately ripped (confidence 14)  [6F286CB9]
     Copy OK
Track 11
     Filename C:\Documents and Settings\David Swift\My Documents\My Music\WhatCD Torrent Uploads\The Youngbloods - Elephant Mountain (1969) [FLAC]\11 - Black Mountain Breakdown.wav
     Peak level 83.2 %
     Track quality 100.0 %
     Test CRC 0208D85C
     Copy CRC 0208D85C
     Accurately ripped (confidence 14)  [598E78BE]
     Copy OK
Track 12
     Filename C:\Documents and Settings\David Swift\My Documents\My Music\WhatCD Torrent Uploads\The Youngbloods - Elephant Mountain (1969) [FLAC]\12 - Sham.wav
     Peak level 88.4 %
     Track quality 100.0 %
     Test CRC 778DA819
     Copy CRC 778DA819
     Accurately ripped (confidence 14)  [5B5B73A5]
     Copy OK
Track 13
     Filename C:\Documents and Settings\David Swift\My Documents\My Music\WhatCD Torrent Uploads\The Youngbloods - Elephant Mountain (1969) [FLAC]\13 - Ride The Wind.wav
     Peak level 65.3 %
     Track quality 100.0 %
     Test CRC 5EA37DDB
     Copy CRC 5EA37DDB
     Accurately ripped (confidence 14)  [CAD9E695]
     Copy OK
All tracks accurately ripped
No errors occurred
End of status report
Код:
REM GENRE Rock
REM DATE 1969
REM DISCID B1095A0D
REM COMMENT "ExactAudioCopy v0.99pb5"
PERFORMER "The Youngbloods"
TITLE "Elephant Mountain (MFSL - MFCD 792)"
FILE "01 - Darkness, Darkness.wav" WAVE
  TRACK 01 AUDIO
    TITLE "Darkness, Darkness"
    PERFORMER "The Youngbloods"
    INDEX 01 00:00:00
  TRACK 02 AUDIO
    TITLE "Smug"
    PERFORMER "The Youngbloods"
    INDEX 00 03:53:00
FILE "02 - Smug.wav" WAVE
    INDEX 01 00:00:00
FILE "03 - On Sir Francis Drake.wav" WAVE
  TRACK 03 AUDIO
    TITLE "On Sir Francis Drake"
    PERFORMER "The Youngbloods"
    INDEX 01 00:00:00
FILE "04 - Sunlight.wav" WAVE
  TRACK 04 AUDIO
    TITLE "Sunlight"
    PERFORMER "The Youngbloods"
    INDEX 01 00:00:00
FILE "05 - Double Sunlight.wav" WAVE
  TRACK 05 AUDIO
    TITLE "Double Sunlight"
    PERFORMER "The Youngbloods"
    INDEX 01 00:00:00
FILE "06 - Beautiful.wav" WAVE
  TRACK 06 AUDIO
    TITLE "Beautiful"
    PERFORMER "The Youngbloods"
    INDEX 01 00:00:00
  TRACK 07 AUDIO
    TITLE "Turn It Over"
    PERFORMER "The Youngbloods"
    INDEX 00 03:45:24
FILE "07 - Turn It Over.wav" WAVE
    INDEX 01 00:00:00
  TRACK 08 AUDIO
    TITLE "Rain Song (Don't Let The Rain Bring You Down)"
    PERFORMER "The Youngbloods"
    INDEX 00 00:12:64
FILE "08 - Rain Song (Don't Let The Rain Bring You Down).wav" WAVE
    INDEX 01 00:00:00
  TRACK 09 AUDIO
    TITLE "Trillium"
    PERFORMER "The Youngbloods"
    INDEX 00 03:13:38
FILE "09 - Trillium.wav" WAVE
    INDEX 01 00:00:00
FILE "10 - Quicksand.wav" WAVE
  TRACK 10 AUDIO
    TITLE "Quicksand"
    PERFORMER "The Youngbloods"
    INDEX 01 00:00:00
FILE "11 - Black Mountain Breakdown.wav" WAVE
  TRACK 11 AUDIO
    TITLE "Black Mountain Breakdown"
    PERFORMER "The Youngbloods"
    INDEX 01 00:00:00
FILE "12 - Sham.wav" WAVE
  TRACK 12 AUDIO
    TITLE "Sham"
    PERFORMER "The Youngbloods"
    INDEX 01 00:00:00
FILE "13 - Ride The Wind.wav" WAVE
  TRACK 13 AUDIO
    TITLE "Ride The Wind"
    PERFORMER "The Youngbloods"
    INDEX 01 00:00:00
Код:
-----------------------
DON'T MODIFY THIS FILE
-----------------------
PERFORMER: auCDtect Task Manager, ver. 1.6.0 RC1 build 1.6.0.1
Copyright (c) 2008-2010 y-soft. All rights reserved
[url=http://y-soft.org]http://y-soft.org[/url]
ANALYZER: auCDtect: CD records authenticity detector, version 0.8.2
Copyright (c) 2004 Oleg Berngardt. All rights reserved.
Copyright (c) 2004 Alexander Djourik. All rights reserved.
FILE: 13 - Ride The Wind.flac
  Size: 34137028 Hash: A95F962B0B4D8D8078C49B571EF65E23 Accuracy: -m0
  Conclusion: CDDA 100%
  Signature: 9F9B7174A9ACFA66F90378EFBF5C731AA5DE3145
FILE: 12 - Sham.flac
  Size: 16520278 Hash: 4F744F33799CAE186C0F6506426679A3 Accuracy: -m0
  Conclusion: CDDA 100%
  Signature: 82D47BB3269C030B3D64366A38942E992312834C
FILE: 11 - Black Mountain Breakdown.flac
  Size: 3373975 Hash: 105FFA5096265A845069291FBA94098A Accuracy: -m0
  Conclusion: CDDA 100%
  Signature: 23400156969BB27E75200CCDFECEF62799417300
FILE: 10 - Quicksand.flac
  Size: 14980290 Hash: 4A77993985004A1F3F12DE97EFF3E02A Accuracy: -m0
  Conclusion: CDDA 100%
  Signature: BDD2292716F87184CD2819EBF10F97DFEACA003A
FILE: 09 - Trillium.flac
  Size: 15980886 Hash: 3C9792DCC724695F9601F75C372ED57C Accuracy: -m0
  Conclusion: CDDA 100%
  Signature: B6537A50DDBDFEDB3A42CDD63FD6487D086F117B
FILE: 08 - Rain Song (Don't Let The Rain Bring You Down).flac
  Size: 17720033 Hash: C7B52A9EDEA6EC314A8A0F4D1E6D9482 Accuracy: -m0
  Conclusion: CDDA 100%
  Signature: 44B7C5551FB6A03B95C100A5079D319EB057DFEC
FILE: 07 - Turn It Over.flac
  Size: 994128 Hash: F5484A87E951010D901D3385C3B4171C Accuracy: -m0
  Conclusion: CDDA 100%
  Signature: 01078E3747366E7723A4EB6E480FC90175ADC191
FILE: 06 - Beautiful.flac
  Size: 21735454 Hash: E4CF21A84266B5788847973684004128 Accuracy: -m0
  Conclusion: CDDA 100%
  Signature: 791017954A40A2199B8337083230EE835A73A581
FILE: 05 - Double Sunlight.flac
  Size: 3133639 Hash: 5AD7016B07CBAAB49DC451457868A453 Accuracy: -m0
  Conclusion: CDDA 100%
  Signature: 5E1F12FF28852B4BD62C72E3E9E717201FB8E2B6
FILE: 04 - Sunlight.flac
  Size: 16268141 Hash: 6646A578C0269DBF0F765574E1C62590 Accuracy: -m0
  Conclusion: CDDA 100%
  Signature: FEEE050C8A2C33149416D3C04ED9562D5C66A522
FILE: 03 - On Sir Francis Drake.flac
  Size: 35610560 Hash: C203BD4FE806B6B230AD4BABF03FDBBD Accuracy: -m0
  Conclusion: CDDA 100%
  Signature: 7B371BA5FF35B6FBE048F0AD8C51E35D3563E354
FILE: 02 - Smug.flac
  Size: 13750889 Hash: 964EC7719214D09D9D9E9FC22D87FA8B Accuracy: -m0
  Conclusion: CDDA 100%
  Signature: 16EAD2CD899CFCFCCBB04A3AFC2652EBF2532243
FILE: 01 - Darkness, Darkness.flac
  Size: 23754265 Hash: CF0E45FFB7521D1E5629D5C71E641FF5 Accuracy: -m0
  Conclusion: CDDA 100%
  Signature: CC210ADABCF1F07657F766B0759FA5EC9B783A0D
Код:
[CUETools log; Date: 7/28/2018 6:04:36 AM; Version: 2.1.5]
[CTDB TOCID: 84jKNXqZ4cBN.kdNItHyKa50uvU-] found.
Track | CTDB Status
  1   | (15/15) Accurately ripped
  2   | (15/15) Accurately ripped
  3   | (15/15) Accurately ripped
  4   | (15/15) Accurately ripped
  5   | (15/15) Accurately ripped
  6   | (15/15) Accurately ripped
  7   | (15/15) Accurately ripped
  8   | (15/15) Accurately ripped
  9   | (15/15) Accurately ripped
 10   | (15/15) Accurately ripped
 11   | (15/15) Accurately ripped
 12   | (15/15) Accurately ripped
 13   | (15/15) Accurately ripped
[AccurateRip ID: 00135664-00bc4058-b1095a0d] found.
Track   [  CRC   |   V2   ] Status
 01     [cab54797|67d399cd] (16+12/28) Accurately ripped
 02     [40f6ebcb|6fbda0b0] (15+12/27) Accurately ripped
 03     [827d36b8|7e2bdca7] (15+12/27) Accurately ripped
 04     [6832e511|b9efdcc3] (15+12/27) Accurately ripped
 05     [5a619311|7dc28275] (15+12/27) Accurately ripped
 06     [23e5c5b2|e9f49504] (15+12/27) Accurately ripped
 07     [e3b50f2e|8b07b58e] (15+12/27) Accurately ripped
 08     [61eeaa67|728a47fb] (15+12/27) Accurately ripped
 09     [724fd070|e3c4727e] (15+12/27) Accurately ripped
 10     [6f286cb9|8214e4e9] (15+12/27) Accurately ripped
 11     [598e78be|95b52319] (15+11/26) Accurately ripped
 12     [5b5b73a5|45cce10d] (15+12/27) Accurately ripped
 13     [cad9e695|9b660fd4] (15+12/27) Accurately ripped
Track Peak [ CRC32  ] [W/O NULL] [  LOG   ]
 --   93.5 [DE42D47C] [6A315A25]
 01   92.3 [BEC7BE98] [5CDC8A01]   CRC32
 02   92.6 [AF9A453B] [3A67428B]   CRC32
 03   93.5 [39CCE6DF] [75515FD4]   CRC32
 04   76.8 [3E515893] [7814195C]   CRC32
 05   54.7 [EECD2D00] [E6799B14]   CRC32
 06   89.3 [85163E35] [BE40AE4E]   CRC32
 07   66.7 [DAF357A0] [7B9F550B]   CRC32
 08   84.8 [00617DD1] [3427527D]   CRC32
 09   72.7 [86CC0D28] [A11B9BFF]   CRC32
 10   78.9 [FEE7CF03] [41FF9EE4]   CRC32
 11   83.2 [0208D85C] [514DEBD4]   CRC32
 12   88.4 [778DA819] [FD69FF60]   CRC32
 13   65.3 [5EA37DDB] [16FA082B]   CRC32
Код:
foobar2000 1.3.10 / Замер динамического диапазона (DR) 1.1.1
Дата отчёта:  2018-07-28 05:56:16
--------------------------------------------------------------------------------
Анализ:   Youngbloods / Elephant Mountain (1969) {Japan 1989 MFSL Aluminium MFCD 792} eac
--------------------------------------------------------------------------------
DR         Пики         RMS           Продолжительность трека
--------------------------------------------------------------------------------
DR12      -0.69 дБ   -15.45 дБ      3:54 01-Darkness, Darkness
DR11      -0.67 дБ   -15.26 дБ      2:12 02-Smug
DR13      -0.58 дБ   -17.07 дБ      6:45 03-On Sir Francis Drake
DR12      -2.29 дБ   -16.64 дБ      3:08 04-Sunlight
DR12      -5.23 дБ   -23.54 дБ      0:41 05-Double Sunlight
DR12      -0.98 дБ   -16.33 дБ      3:50 06-Beautiful
DR12      -3.51 дБ   -23.68 дБ      0:15 07-Turn It Over
DR13      -1.42 дБ   -16.55 дБ      3:16 08-Rain Song (Don't Let The Rain Bring You Down)
DR12      -2.76 дБ   -19.59 дБ      3:09 09-Trillium
DR11      -2.05 дБ   -17.56 дБ      2:41 10-Quicksand
DR13      -1.59 дБ   -18.43 дБ      0:40 11-Black Mountain Breakdown
DR11      -1.06 дБ   -15.05 дБ      2:44 12-Sham
DR11      -3.70 дБ   -18.47 дБ      6:38 13-Ride The Wind
--------------------------------------------------------------------------------
Количество треков: 13
Реальные значения DR: DR12
Частота:   44100 Гц
Каналов:   2
Разрядность:   16
Битрейт:   686 кбит/с
Кодек:   FLAC
================================================================================

.....Чувствуя, что вся потенциальная аудитория смотрит в сторону Калифорнии, группа в конце 1967 перебралась на жительство в графство Мэрин, где и началась работа над третьим альбомом — на этот раз в качестве продюсера был приглашен Чарли Дэниелс (из одноименной группы). Разногласия между Янгом и Корбиттом по поводу отбора песен вылились в серьезный конфликт, в результате которого Джерри покинул группу почти сразу после начала записи. Тем не менее, вышедший весной 1969 альбом Elephant Mountain стал самой яркой работой в биографии группы: сочная смесь из блюграсс, фолка, кантри и рок-н-ролла с выразительными мелодиями, мягким голосом Янга и эффектной гитарой Левинджера, которые стали фирменным знаком их стиля. В таких номерах как On The Sir Francis Drake и Trillium группа сделала шаг в направлении джаза, а открывавшая альбом (и трижды в 1968, 1969 и 1970 выходившая на синглах) Darkness Darkness стала их главной песней; в 1971 на альбоме Brain Capers MOTT THE HOOPLE сделали свою версию этой песни. Летом 1969 песня Get Together прозвучала в качестве заставки в телепрограмме, призывавшей к гражданскому примирению, после чего была переиздана и неожиданно поднялась на 5-ю строку чартов, став единственным большим хитом группы.....
Producer - Charlie Daniels, The Youngbloods, Bob Cullen
Personnel
Jesse Colin Young – bass, lead vocals, acoustic guitar on "Sunlight"
Lowell "Banana" Levinger – guitar, backing vocals, electric piano
Joe Bauer – drums
Additional musicians
Jerry Corbitt – guitar and vocals (uncredited in original liner notes)
David Lindley – fiddle
Plas Johnson – tenor saxophone
Joe Clayton – trumpet
Victor Feldman – vibraphone
Additional personnel
Charles E. Daniels (Charlie Daniels), The Youngbloods and Bob Cullen – producer

Если нет сидов - пришлите мне ЛС
Правила, инструкции, FAQ!!!
Торрент  Добавлен [05 авг 2018, 09:23] Скачать торрент Магнет ссылка
Скачать торрент
[ Размер 18.64 КБ / Просмотров 27 ]

Статус
Проверен 
 
Размер  215.93 МБ
Приватный: Нет (DHT включён)
.torrent скачан  0
Как залить торрент? | Как скачать Torrent? | Ошибка в торренте? Качайте магнет  


     Отправить личное сообщение
   
Страница 1 из 1
Показать сообщения за:  Поле сортировки  
Начать новую тему Ответить на тему

   Похожие торренты   Автор   Ответы   Просмотры   Последнее сообщение 
В этой теме нет новых непрочитанных сообщений. Скачать торрент Проверен (Folk Rock) [LP][24/96] The Youngbloods - Elephant Mountain (Reissue, 180 grams vinyl, Rhino LSP-4150) - 1969, FLAC (tracks), lossless

в форуме Зарубежный рок (оцифровки), Размер: 784.2 МБ, Здоровье: 0%

Anonymous

0
0|0

24
0

26 авг 2016, 08:24

Anonymous Перейти к последнему сообщению

В этой теме нет новых непрочитанных сообщений. Скачать торрент Проверен (Rock, Folk Rock) [LP][24/48] The Youngbloods "Elephant Mountain" 1969, "Get Together" 1969, "Rock Festival" 1970, "Ride The Wind" 1971, "High on a Ridgetop" 1972, FLAC (tracks), lossless

в форуме Зарубежный рок (оцифровки), Размер: 2.1 ГБ, Здоровье: 100%

Anonymous

0
5|1

12
0

26 авг 2016, 17:01

Anonymous Перейти к последнему сообщению

В этой теме нет новых непрочитанных сообщений. Скачать торрент Проверен (Classic Rock, Psychedelic Rock) Crazy Elephant - Crazy Elephant (1969), WavPack (image+.cue) lossless

в форуме Classic Rock & Hard Rock, Размер: 389.6 МБ, Здоровье: 100%

Anonymous

0
13|4

35
3

05 сен 2016, 19:12

Anonymous Перейти к последнему сообщению

В этой теме нет новых непрочитанных сообщений. Скачать торрент Проверен (Folk-Rock, Psychedelic Rock, Country) The Youngbloods - Studio Discography (студийные альбомы) 1967 - 1972 (5 albums, 4 CD, Remasters), FLAC (tracks+.cue), lossless

в форуме Classic Rock & Hard Rock, Размер: 1.11 ГБ, Здоровье: 53%

Anonymous

0
8|15

46
1

04 сен 2016, 18:01

Anonymous Перейти к последнему сообщению

В этой теме нет новых непрочитанных сообщений. Скачать торрент Проверен (Rock, Folk Rock) [CD] The Youngbloods - 3 Albums Collection 1967-1969 (Mini LP BSCD2) - 2014 (Sony Music Japan), FLAC (image+.cue), lossless

в форуме Classic Rock & Hard Rock, Размер: 1.66 ГБ, Здоровье: 71%

Anonymous

0
10|14

27
3

03 сен 2016, 14:11

Anonymous Перейти к последнему сообщению



Сейчас этот форум просматривают: нет зарегистрированных пользователей и гости: 1


Вы не можете начинать темы
Вы не можете отвечать на сообщения
Вы не можете редактировать свои сообщения
Вы не можете удалять свои сообщения
Вы не можете добавлять вложения

Перейти:  
Ресурс не предоставляет электронные версии произведений, а занимается лишь коллекционированием и каталогизацией ссылок, присылаемых и публикуемых на форуме нашими читателями. Если вы являетесь правообладателем какого-либо представленного материала и не желаете чтобы ссылка на него находилась в нашем каталоге, свяжитесь с нами и мы незамедлительно удалим её. Файлы для обмена на трекере предоставлены пользователями сайта, и администрация не несёт ответственности за их содержание. Просьба не заливать файлы, защищенные авторскими правами, а также файлы нелегального содержания!
cron