На всех торрентах на трекере установлена скидка на скачивание в размере 100 процентов(а).
 Возможность скачивания торрента НЕ зависит от ограничений при низком ратио, низком аплоаде, требуемом ратио или требуемом аплоаде.


Начать новую тему Ответить на тему
Статистика раздачи
Размер: 201.64 МБ | Добавлен: 05 авг 2018, 09:25 | Скачали: 0
Сидеров: 0  [0 байт/сек]    Личеров: 0  [0 байт/сек]
Пред. тема | След. тема 

Автор
Сообщение

СообщениеДобавлено: 05 авг 2018, 09:25 

Ответить с цитатой 

Ismeros Arcok / Mennyit er?
Жанр: Classic Rock
Носитель: CD
Страна-производитель диска (релиза): Hungary
Год издания: 2004
Издатель (лейбл): IA
Номер по каталогу: 002
Страна исполнителя (группы): Hungary
Аудиокодек: FLAC (*.flac)
Тип рипа: image+.cue
Битрейт аудио: lossless
Продолжительность: 0:33:49
Источник (релизер): собственный рип
Наличие сканов в содержимом раздачи: нет
Треклист:
01. Egy a hazank
02. Epitsunk hidat
03. Erdely 2003.
04. Fellegajto nyitogato
05. Szelbe kialtok
06. Fenyok
07. Baratom!
08. Mennyit er?
Код:
Exact Audio Copy V1.3 from 2. September 2016
EAC extraction logfile from 3. August 2018, 15:22
Ismeros Arcok / Mennyit er?
Used drive  : PIONEER BD-RW   BDR-209D   Adapter: 1  ID: 2
Read mode               : Secure
Utilize accurate stream : Yes
Defeat audio cache      : Yes
Make use of C2 pointers : No
Read offset correction                      : 667
Overread into Lead-In and Lead-Out          : No
Fill up missing offset samples with silence : Yes
Delete leading and trailing silent blocks   : No
Null samples used in CRC calculations       : Yes
Used interface                              : Native Win32 interface for Win NT & 2000
Used output format              : User Defined Encoder
Selected bitrate                : 1024 kBit/s
Quality                         : High
Add ID3 tag                     : No
Command line compressor         : C:\Program Files (x86)\Exact Audio Copy\FLAC\FLAC.EXE
Additional command line options : -6 -V -T "ARTIST=%artist%" -T "TITLE=%title%" -T "ALBUM=%albumtitle%" -T "DATE=%year%" -T "TRACKNUMBER=%tracknr%" -T "GENRE=%genre%" -T "COMMENT=%comment%" -T "BAND=%albuminterpret%" -T "ALBUMARTIST=%albuminterpret%" -T "COMPOSER=%composer%" %haslyrics%--tag-from-file=LYRICS="%lyricsfile%"%haslyrics% -T "DISCNUMBER=%cdnumber%" -T "TOTALDISCS=%totalcds%" -T "TOTALTRACKS=%numtracks%" %hascover%--picture="%coverfile%"%hascover% %source% -o %dest%
TOC of the extracted CD
     Track |   Start  |  Length  | Start sector | End sector
    ---------------------------------------------------------
        1  |  0:00.00 |  4:16.64 |         0    |    19263
        2  |  4:16.64 |  3:18.73 |     19264    |    34186
        3  |  7:35.62 |  5:06.63 |     34187    |    57199
        4  | 12:42.50 |  3:38.22 |     57200    |    73571
        5  | 16:20.72 |  3:16.51 |     73572    |    88322
        6  | 19:37.48 |  3:56.06 |     88323    |   106028
        7  | 23:33.54 |  6:30.34 |    106029    |   135312
        8  | 30:04.13 |  3:45.35 |    135313    |   152222
Range status and errors
Selected range
     Filename F:\Ismeros Arcok - 2004 - Mennyit er\Ismeros Arcok - Mennyit er.wav
     Peak level 97.7 %
     Extraction speed 4.3 X
     Range quality 100.0 %
     Test CRC 483F14D9
     Copy CRC 483F14D9
     Copy OK
No errors occurred
AccurateRip summary
Track  1  not present in database
Track  2  not present in database
Track  3  not present in database
Track  4  not present in database
Track  5  not present in database
Track  6  not present in database
Track  7  not present in database
Track  8  not present in database
None of the tracks are present in the AccurateRip database
End of status report
---- CUETools DB Plugin V2.1.6
[CTDB TOCID: IYKxCA8.iGzSsAHoBIgqL0FF0J4-] disk not present in database
Submit result: IYKxCA8.iGzSsAHoBIgqL0FF0J4- has been uploaded
==== Log checksum A7DE02B5EA45D02F7737E398BDF7BA2386A26FAEA86C3E19B07ADC66082EE663 ====
Код:
-----------------------
DON'T MODIFY THIS FILE
-----------------------
PERFORMER: auCDtect Task Manager, ver. 1.6.0 RC1 build 1.6.0.1
Copyright (c) 2008-2010 y-soft. All rights reserved
[url=http://y-soft.org]http://y-soft.org[/url]
ANALYZER: auCDtect: CD records authenticity detector, version 0.8.2
Copyright (c) 2004 Oleg Berngardt. All rights reserved.
Copyright (c) 2004 Alexander Djourik. All rights reserved.
FILE: Ismeros Arcok - Mennyit er.flac
  Size: 211381318 Hash: 26E12683A7E35955A36186C87EC95F4C Accuracy: -m0
  Conclusion: CDDA 100%
  Signature: 83FB8B32763482CF1DFDC64EE7CA7888B2562DD8
Bass – Galambos Nándor
Guitar, Backing Vocals – Práder Vilmos
Percussion – Kovacsik Tamás
Vocals, Guitar – Nyerges Attila
"A dalokat Bubik István emlékének ajánljuk."
Правила, инструкции, FAQ!!!
Торрент  Добавлен [05 авг 2018, 09:25] Скачать торрент Магнет ссылка
Скачать торрент
[ Размер 16.41 КБ / Просмотров 30 ]

Статус
Проверен 
 
Размер  201.64 МБ
Приватный: Нет (DHT включён)
.torrent скачан  0
Как залить торрент? | Как скачать Torrent? | Ошибка в торренте? Качайте магнет  


     Отправить личное сообщение
   
Страница 1 из 1
Показать сообщения за:  Поле сортировки  
Начать новую тему Ответить на тему

   Похожие торренты   Автор   Ответы   Просмотры   Последнее сообщение 
В этой теме нет новых непрочитанных сообщений. Скачать торрент Проверен (Melodic Rock, Classic Rock) [CD] Ismerős Arcok (Ismeros Arcok) - Csak a zene! - 2015, FLAC (tracks+.cue), lossless

в форуме Classic Rock & Hard Rock, Размер: 432.27 МБ, Здоровье: 100%

Anonymous

0
2|0

19
0

04 сен 2016, 21:55

Anonymous Перейти к последнему сообщению

В этой теме нет новых непрочитанных сообщений. Скачать торрент Проверен (Classic Rock) [CD] Ismeros Arcok - Eberalom - 2016, FLAC (image+.cue), lossless

в форуме Classic Rock & Hard Rock, Размер: 593.11 МБ, Здоровье: 0%

Anonymous

0
0|0

6
0

05 авг 2018, 09:24

Anonymous Перейти к последнему сообщению

В этой теме нет новых непрочитанных сообщений. Скачать торрент Проверен (Classic Rock) [CD] Ismeros Arcok - Szelbe kialtok - 2005, FLAC (image+.cue), lossless

в форуме Classic Rock & Hard Rock, Размер: 379.55 МБ, Здоровье: 100%

Anonymous

0
1|0

7
0

05 авг 2018, 09:25

Anonymous Перейти к последнему сообщению

В этой теме нет новых непрочитанных сообщений. Скачать торрент Проверен (Classic Rock) [CD] Ismeros Arcok - Keritest bontok - 2012, FLAC (image+.cue), lossless

в форуме Classic Rock & Hard Rock, Размер: 475.07 МБ, Здоровье: 100%

Anonymous

0
2|0

9
0

05 авг 2018, 09:25

Anonymous Перейти к последнему сообщению

В этой теме нет новых непрочитанных сообщений. Скачать торрент Проверен (Classic Rock) [CD] Ismeros Arcok - Lelekveszto - 2009, FLAC (tracks+.cue), lossless

в форуме Classic Rock & Hard Rock, Размер: 605.24 МБ, Здоровье: 0%

Anonymous

0
0|0

7
0

05 авг 2018, 09:25

Anonymous Перейти к последнему сообщению



Сейчас этот форум просматривают: нет зарегистрированных пользователей и гости: 0


Вы не можете начинать темы
Вы не можете отвечать на сообщения
Вы не можете редактировать свои сообщения
Вы не можете удалять свои сообщения
Вы не можете добавлять вложения

Перейти:  
Ресурс не предоставляет электронные версии произведений, а занимается лишь коллекционированием и каталогизацией ссылок, присылаемых и публикуемых на форуме нашими читателями. Если вы являетесь правообладателем какого-либо представленного материала и не желаете чтобы ссылка на него находилась в нашем каталоге, свяжитесь с нами и мы незамедлительно удалим её. Файлы для обмена на трекере предоставлены пользователями сайта, и администрация не несёт ответственности за их содержание. Просьба не заливать файлы, защищенные авторскими правами, а также файлы нелегального содержания!
cron