На всех торрентах на трекере установлена скидка на скачивание в размере 100 процентов(а).
 Возможность скачивания торрента НЕ зависит от ограничений при низком ратио, низком аплоаде, требуемом ратио или требуемом аплоаде.


Начать новую тему Ответить на тему
Статистика раздачи
Размер: 3.52 ГБ | Добавлен: 26 дек 2015, 22:37 | Скачали: 10
Сидеров: 33  [0 байт/сек]    Личеров: 174  [0 байт/сек]
Пред. тема | След. тема 

Автор
Сообщение

СообщениеДобавлено: 26 дек 2015, 22:37 

Ответить с цитатой 

Conjure One - 12 albums (2002-2011)



Год: 2002-2011
Жанр: Chillout, Ambient, New Age, Downtempo
Продолжительность: 08:29:27

Аудиокодек: FLAC
Битрейт аудио: Lossless

Первоначально «Conjure One» создавался как разовый проект знаменитого специалиста в области этнической поп-музыки Риса (Рифа) Фальбера. Того самого Фальбера, который является отцом основателем легендарной индустриальной Front Line Assembly, эмбиентного проекта Synaesthesia и впечатляюще коммерчески успешных Delerium. Любопытно, что изначально те же Delerium играли довольно мрачный и задумчивый ambient, который довольно неожиданно сменился этно-попом.

Дебютный диск проекта Conjure One, ведомого к вершинам хит-парадов человеком с именем Rhys Fulber, раскрывает перед слушателями его многогранный талант - оказывается, он не только отличный и востребованный продюсер, но еще и успешный композитор. Rhys весьма тщательно подошел к процессу создания материала для этого альбома, протянув с его выходом пять лет. Дата официального появления пластинки Conjure One на свет, освещающий лотки продавцов музыкальной продукции, падких на деньги посетителей, переносилась в будущее целых десять раз! Чего уж говорить - редеющая в это время группа поклонников гремевшей своей славой по всему маленькому индустриальному мирку парочки Leeb/Fulber, но не только они, устали ждать попытки услышать, что же натворил один из их любимцев. Эти долгие годы Rhys потратил не впустую. Conjure One - диск приятный во многих отношениях.

Продуманность синтезаторных партий, тщательная проработка деталей - альбом буквально вылизан и доведен до состояния совершенства. В общем плане он близок к тому, что можно было почерпнуть с диска Karma минус восточная ориентированность последнего. Это не очередной клон Enigma с женскими песнопениями, это совершенно самостоятельная сладкоголосая и мелодичная музыка для душевного отдыха и домашнего потребления широкими слоями населения - не удивителен восторг многих рецензентов по ее поводу.

Продолжительность: 01:38:49

Треклист:
CD1: (00:54:37)
01. Damascus (02:02)
02. Centre Of The Sun (05:00)
03. Tears From The Moon (04:17)
04. Tidal Pool (06:50)
05. Manic Star (05:23)
06. Redemption (06:59)
07. Years (06:21)
08. Make A Wish (04:32)
09. Pandora (05:02)
10. Sleep (05:00)
11. Premonition (Reprise) (03:05)
CD2: (00:44:11)
01. Tears From The Moon (Hybrid Twisted On The Terrace Mix) (09:49)
02. Redemption (Max Graham Dead Sea Mix) (11:14)
03. Sleep (Ian Van Dahl Mix) (08:05)
04. Tears From The Moon (Tiësto In Search Of Sunrise Mix) (08:09)
05. Sleep (Solarstone Afterhours Mix) (06:51)

Код:
Код:
Exact Audio Copy V1.0 beta 1 from 15. November 2010

EAC extraction logfile from 20. December 2010, 18:36

Conjure One / Conjure One

Used drive  : PLEXTOR CD-R   PX-240A   Adapter: 1  ID: 1

Read mode               : Secure
Utilize accurate stream : Yes
Defeat audio cache      : Yes
Make use of C2 pointers : No

Read offset correction                      : 6
Overread into Lead-In and Lead-Out          : No
Fill up missing offset samples with silence : Yes
Delete leading and trailing silent blocks   : No
Null samples used in CRC calculations       : Yes
Used interface                              : Installed external ASPI interface

Used output format : Internal WAV Routines
Sample format      : 44.100 Hz; 16 Bit; Stereo

TOC of the extracted CD

     Track |   Start  |  Length  | Start sector | End sector
    ---------------------------------------------------------
        1  |  0:00.00 |  2:02.66 |         0    |     9215
        2  |  2:02.66 |  5:00.41 |      9216    |    31756
        3  |  7:03.32 |  4:17.67 |     31757    |    51098
        4  | 11:21.24 |  6:50.65 |     51099    |    81913
        5  | 18:12.14 |  5:23.34 |     81914    |   106172
        6  | 23:35.48 |  6:59.28 |    106173    |   137625
        7  | 30:35.01 |  6:21.18 |    137626    |   166218
        8  | 36:56.19 |  4:32.04 |    166219    |   186622
        9  | 41:28.23 |  5:02.62 |    186623    |   209334
       10  | 46:31.10 |  5:00.53 |    209335    |   231887
       11  | 51:31.63 |  3:05.71 |    231888    |   245833

Range status and errors

Selected range

     Filename Z:\data\mp3\Seeding\Conjure One\2002-Conjure One [EU Limited Edition]\Conjure One EU CD 1.wav

     Peak level 100.0 %
     Extraction speed 0.4 X
     Range quality 100.0 %
     Test CRC 9565FDE1
     Copy CRC 9565FDE1
     Copy OK

No errors occurred

AccurateRip summary

Track  1  accurately ripped (confidence 9)  [9D55DB91]
Track  2  accurately ripped (confidence 9)  [4EEB2022]
Track  3  accurately ripped (confidence 9)  [F831C194]
Track  4  accurately ripped (confidence 9)  [C5AB1BAF]
Track  5  accurately ripped (confidence 9)  [08C94E7C]
Track  6  accurately ripped (confidence 9)  [2C8F43CE]
Track  7  accurately ripped (confidence 9)  [C66871F2]
Track  8  accurately ripped (confidence 9)  [B172BBFC]
Track  9  accurately ripped (confidence 9)  [4DEEB63E]
Track 10  accurately ripped (confidence 9)  [77DBDB3D]
Track 11  accurately ripped (confidence 9)  [90B411AA]

All tracks accurately ripped

End of status report
Код:
Код:
Exact Audio Copy V1.0 beta 1 from 15. November 2010

EAC extraction logfile from 20. December 2010, 18:36

Conjure One / Conjure One (Bonus Remix CD)

Used drive  : LITE-ON DVDRW LH-20A1L   Adapter: 4  ID: 0

Read mode               : Secure
Utilize accurate stream : Yes
Defeat audio cache      : Yes
Make use of C2 pointers : No

Read offset correction                      : 6
Overread into Lead-In and Lead-Out          : No
Fill up missing offset samples with silence : Yes
Delete leading and trailing silent blocks   : No
Null samples used in CRC calculations       : Yes
Used interface                              : Installed external ASPI interface

Used output format : Internal WAV Routines
Sample format      : 44.100 Hz; 16 Bit; Stereo

TOC of the extracted CD

     Track |   Start  |  Length  | Start sector | End sector
    ---------------------------------------------------------
        1  |  0:00.00 |  9:51.73 |         0    |    44397
        2  |  9:51.73 | 11:16.20 |     44398    |    95117
        3  | 21:08.18 |  8:07.50 |     95118    |   131692
        4  | 29:15.68 |  8:11.70 |    131693    |   168587
        5  | 37:27.63 |  6:51.57 |    168588    |   199469

Range status and errors

Selected range

     Filename Z:\data\mp3\Seeding\Conjure One\2002-Conjure One [EU Limited Edition]\Conjure One EU CD 2.wav

     Peak level 98.8 %
     Extraction speed 1.1 X
     Range quality 100.0 %
     Test CRC 789DE573
     Copy CRC 789DE573
     Copy OK

No errors occurred

AccurateRip summary

Track  1  accurately ripped (confidence 8)  [3E15AE37]
Track  2  accurately ripped (confidence 8)  [A556F904]
Track  3  accurately ripped (confidence 8)  [1E9960DB]
Track  4  accurately ripped (confidence 8)  [A5BF75B4]
Track  5  accurately ripped (confidence 8)  [1E816E87]

All tracks accurately ripped

End of status report
Код:
Код:
-----------------------

DON'T MODIFY THIS FILE

-----------------------

PERFORMER: auCDtect Task Manager, ver. 1.5.1RC4 build 1.5.1.5
Copyright (c) 2008-2010 y-soft. All rights reserved
http:/y-soft.org

ANALYZER: auCDtect: CD records authenticity detector, version 0.8.2
Copyright (c) 2004 Oleg Berngardt. All rights reserved.
Copyright (c) 2004 Alexander Djourik. All rights reserved.

FILE: Conjure One EU CD 2.flac
  Size: 316106214 Hash: 637DC4C6387030AD945926AC2C862DFB Accuracy: -m0
  Conclusion: CDDA 100%
  Signature: BCADC0B0C620101A3E19EFB43BF2DD5BEC01E41B
FILE: Conjure One EU CD 1.flac
  Size: 385026875 Hash: 436A2C40DB7B085BFFBF5D57263EB4FE Accuracy: -m0
  Conclusion: CDDA 100%
  Signature: A1489966400842762272B9E74E863E5311826756

Продолжительность: 00:49:12

Треклист:
01. Sleep (Ian van Dahl Remix) (08:05)
02. Sleep (Max Graham Mix) (09:54)
03. Sleep (Angel Alanis & Smitty Mix) (07:31)
04. Sleep (Carmen Rizzo Serenity Mix) (05:34)
05. Sleep (Solarstone's Afterhours Mix) (06:51)
06. Redemption (Max Graham's Dead Sea Mix) (11:14)

Отсутствует.
Код:
Код:
-----------------------

DON'T MODIFY THIS FILE

-----------------------

PERFORMER: auCDtect Task Manager, ver. 1.5.1RC4 build 1.5.1.5
Copyright (c) 2008-2010 y-soft. All rights reserved
http:/y-soft.org

ANALYZER: auCDtect: CD records authenticity detector, version 0.8.2
Copyright (c) 2004 Oleg Berngardt. All rights reserved.
Copyright (c) 2004 Alexander Djourik. All rights reserved.

FILE: 06 - Redemption (Max Graham's Dead Sea Mix).flac
  Size: 84968262 Hash: 09DD8CF9D42DF9DE854D0CB30E564486 Accuracy: -m0
  Conclusion: CDDA 100%
  Signature: F0D8EE840A40E799F39F1361165A4C7D25848043
FILE: 05 - Sleep (Solarstone's Afterhours Mix).flac
  Size: 42018579 Hash: BFD5912B4E3ECA52909C8971F25AA537 Accuracy: -m0
  Conclusion: CDDA 100%
  Signature: 3F808F7BF0CEDBD263EAF5EB68107A2CC9DCBB70
FILE: 04 - Sleep (Carmen Rizzo Serenity Mix).flac
  Size: 37466353 Hash: A16AFC3FF38D7F9D3BF6D867431CFBB8 Accuracy: -m0
  Conclusion: CDDA 100%
  Signature: 277F29AFFA5E8EE8CBAFDCD10B5FB3BEA34D6997
FILE: 03 - Sleep (Angel Alanis & Smitty Mix).flac
  Size: 55675936 Hash: 40A03D964F3572D636656D576C2FC4CF Accuracy: -m0
  Conclusion: CDDA 100%
  Signature: 1C7A1BF6656801C496E1C4B97CDF0F028EFBFB23
FILE: 02 - Sleep (Max Graham Mix).flac
  Size: 70029478 Hash: 6B0249E1EDB7570608C6798B7DBEBE23 Accuracy: -m0
  Conclusion: MPEG 95%
  Signature: F65E5AC4E5D6332848E38FDEA188428BDF47D695
FILE: 01 - Sleep (Ian van Dahl Remix).flac
  Size: 57194863 Hash: 50B50DD1E47BC26E5AE86655F4691445 Accuracy: -m0
  Conclusion: CDDA 100%
  Signature: 18508B499D73FD5544217992B7561A76B80F1BA5

Продолжительность: 00:08:00

Треклист:
01. Tears From The Moon [Radio Edit] (03:40)
02. Tears From The Moon [LP Version] (04:19)

Код:
Код:
Exact Audio Copy V1.0 beta 1 from 15. November 2010

EAC extraction logfile from 15. February 2011, 21:20

Conjure One / Tears From The Moon (Promo)

Used drive  : TEAC    DVD+-RW DVW28SLC   Adapter: 0  ID: 0

Read mode               : Secure
Utilize accurate stream : Yes
Defeat audio cache      : Yes
Make use of C2 pointers : No

Read offset correction                      : 48
Overread into Lead-In and Lead-Out          : No
Fill up missing offset samples with silence : Yes
Delete leading and trailing silent blocks   : No
Null samples used in CRC calculations       : Yes
Used interface                              : Native Win32 interface for Win NT & 2000

Used output format : Internal WAV Routines
Sample format      : 44.100 Hz; 16 Bit; Stereo

TOC of the extracted CD

     Track |   Start  |  Length  | Start sector | End sector
    ---------------------------------------------------------
        1  |  0:00.00 |  3:42.22 |         0    |    16671
        2  |  3:42.22 |  4:19.68 |     16672    |    36164

Range status and errors

Selected range

     Filename Z:\Seeding\Conjure One\2002-Tears From The Moon [US Promo]\Tears From The Moon (US Promo).wav

     Peak level 100.0 %
     Extraction speed 1.1 X
     Range quality 100.0 %
     Test CRC 480C02AE
     Copy CRC 480C02AE
     Copy OK

No errors occurred

AccurateRip summary

Track  1  accurately ripped (confidence 1)  [00472E86]
Track  2  accurately ripped (confidence 1)  [701A9D2C]

All tracks accurately ripped

End of status report
Код:
Код:
-----------------------

DON'T MODIFY THIS FILE

-----------------------

PERFORMER: auCDtect Task Manager, ver. 1.5.1RC4 build 1.5.1.5
Copyright (c) 2008-2010 y-soft. All rights reserved
http:/y-soft.org

ANALYZER: auCDtect: CD records authenticity detector, version 0.8.2
Copyright (c) 2004 Oleg Berngardt. All rights reserved.
Copyright (c) 2004 Alexander Djourik. All rights reserved.

FILE: Tears From The Moon (US Promo).flac
  Size: 59689860 Hash: FCEF6D00AAA0C29B2579F88409E14DAD Accuracy: -m0
  Conclusion: CDDA 100%
  Signature: 25BBDCCEE01911AB33337F239AA8D8D8DD1E40CD

Продолжительность: 00:36:14

Треклист:
01. Center Of The Sun (Pete Lorimer-29 Palms Remix Edit) (03:57)
02. Center Of The Sun (Album Version Edit) (03:34)
03. Center Of The Sun (Junkie XL Remix) (09:38)
04. Center Of The Sun (Pete Lorimer-29 Palms Remix) (09:05)
05. Center Of The Sun (Solarstone's Chilled-Out Remix) (09:58)

Код:
Код:
Exact Audio Copy V1.0 beta 1 from 15. November 2010

EAC extraction logfile from 28. January 2011, 10:07

Conjure One / Center Of The Sun

Used drive  : TSSTcorpCDRWDVD TS-H492C   Adapter: 0  ID: 0

Read mode               : Secure
Utilize accurate stream : Yes
Defeat audio cache      : Yes
Make use of C2 pointers : No

Read offset correction                      : 6
Overread into Lead-In and Lead-Out          : No
Fill up missing offset samples with silence : Yes
Delete leading and trailing silent blocks   : No
Null samples used in CRC calculations       : Yes
Used interface                              : Native Win32 interface for Win NT & 2000

Used output format : Internal WAV Routines
Sample format      : 44.100 Hz; 16 Bit; Stereo

TOC of the extracted CD

     Track |   Start  |  Length  | Start sector | End sector
    ---------------------------------------------------------
        1  |  0:00.00 |  3:59.18 |         0    |    17942
        2  |  3:59.18 |  3:36.42 |     17943    |    34184
        3  |  7:35.60 |  9:40.69 |     34185    |    77753
        4  | 17:16.54 |  9:07.28 |     77754    |   118806
        5  | 26:24.07 |  9:58.55 |    118807    |   163711
        6  | 38:54.62 | 35:03.13 |    175112    |   332849

Range status and errors

Selected range

     Filename C:\TEMP\Conjure One - Center Of The Sun\Center Of The Sun.wav

     Peak level 100.0 %
     Extraction speed 3.8 X
     Range quality 99.9 %
     Test CRC 6683A79B
     Copy CRC 6683A79B
     Copy OK

No errors occurred

AccurateRip summary

Track  1  not present in database
Track  2  not present in database
Track  3  not present in database
Track  4  not present in database
Track  5  not present in database

None of the tracks are present in the AccurateRip database

End of status report
Код:
Код:
-----------------------

DON'T MODIFY THIS FILE

-----------------------

PERFORMER: auCDtect Task Manager, ver. 1.5.1RC4 build 1.5.1.5
Copyright (c) 2008-2010 y-soft. All rights reserved
http:/y-soft.org

ANALYZER: auCDtect: CD records authenticity detector, version 0.8.2
Copyright (c) 2004 Oleg Berngardt. All rights reserved.
Copyright (c) 2004 Alexander Djourik. All rights reserved.

FILE: Center Of The Sun (EU Single).flac
  Size: 240638954 Hash: FBFEB7CC30CF811F6FBEEBCC813988B7 Accuracy: -m0
  Conclusion: CDDA 100%
  Signature: 95DD6A9C5ABA4CFFD0D5A06272D70D60C950D8A3

Продолжительность: 00:15:34

Треклист:
01. Sleep (Ian van Dahl Remix Edit) (03:15)
02. Tears from the Moon (Hybrid Twisted on the Terrace Mix V.2 Edit) (03:36)
03. Tears from the Moon (Robbie Rivera Mix) (08:41)

Код:
Код:
Exact Audio Copy V0.99 prebeta 5 from 4. May 2009

EAC extraction logfile from 9. December 2010, 8:18

Conjure One / Sleep / Tears From The Moon

Used drive  : LITE-ON DVDRW LH-20A1L   Adapter: 5  ID: 0

Read mode               : Secure
Utilize accurate stream : Yes
Defeat audio cache      : Yes
Make use of C2 pointers : No

Read offset correction                      : 6
Overread into Lead-In and Lead-Out          : No
Fill up missing offset samples with silence : Yes
Delete leading and trailing silent blocks   : No
Null samples used in CRC calculations       : Yes
Used interface                              : Installed external ASPI interface

Used output format : Internal WAV Routines
Sample format      : 44.100 Hz; 16 Bit; Stereo

TOC of the extracted CD

     Track |   Start  |  Length  | Start sector | End sector
    ---------------------------------------------------------
        1  |  0:00.00 |  3:17.47 |         0    |    14821
        2  |  3:17.47 |  3:38.62 |     14822    |    31233
        3  |  6:56.34 |  8:41.74 |     31234    |    70382

Range status and errors

Selected range

     Filename Z:\data\mp3\Seeding\Conjure One\2003-Sleep-Tears From The Moon\Sleep - Tears From The Moon.wav

     Peak level 100.0 %
     Range quality 99.9 %
     Test CRC 2B759614
     Copy CRC 2B759614
     Copy OK

No errors occurred

AccurateRip summary

Track  1  accurately ripped (confidence 1)  [37EE2F64]
Track  2  accurately ripped (confidence 1)  [241A59DC]
Track  3  accurately ripped (confidence 1)  [F4338BF9]

All tracks accurately ripped

End of status report
Код:
Код:
-----------------------

DON'T MODIFY THIS FILE

-----------------------

PERFORMER: auCDtect Task Manager, ver. 1.5.1RC4 build 1.5.1.5
Copyright (c) 2008-2010 y-soft. All rights reserved
http:/y-soft.org

ANALYZER: auCDtect: CD records authenticity detector, version 0.8.2
Copyright (c) 2004 Oleg Berngardt. All rights reserved.
Copyright (c) 2004 Alexander Djourik. All rights reserved.

FILE: Sleep - Tears From The Moon.flac
  Size: 112083416 Hash: F3EA79A1577D297224EAFC27DB6A0330 Accuracy: -m0
  Conclusion: MPEG 95%
  Signature: B0CDF4CBE7165E541F52FA72A52088349A57C133

Продолжительность: 00:37:06

Треклист:
01. Tears From The Moon (Album Version) (04:18)
02. Tears From The Moon (Tiësto In Search Of Sunrise Remix) (08:10)
03. Tears From The Moon (Hybrid Twisted On The Terrace Mix) (09:50)
04. Tears From The Moon (Robbie Rivera Mix) (08:42)
05. Tears From The Moon (Carmen Rizzo Stateside West Chill Out Mix) (06:05)

Код:
Код:
Exact Audio Copy V1.0 beta 1 from 15. November 2010

EAC extraction logfile from 3. December 2010, 11:34

Conjure One / Tears From The Moon

Used drive  : TSSTcorpCDRWDVD TS-H492C   Adapter: 0  ID: 0

Read mode               : Secure
Utilize accurate stream : Yes
Defeat audio cache      : Yes
Make use of C2 pointers : No

Read offset correction                      : 6
Overread into Lead-In and Lead-Out          : No
Fill up missing offset samples with silence : Yes
Delete leading and trailing silent blocks   : No
Null samples used in CRC calculations       : Yes
Used interface                              : Native Win32 interface for Win NT & 2000

Used output format : Internal WAV Routines
Sample format      : 44.100 Hz; 16 Bit; Stereo

TOC of the extracted CD

     Track |   Start  |  Length  | Start sector | End sector
    ---------------------------------------------------------
        1  |  0:00.00 |  4:20.13 |         0    |    19512
        2  |  4:20.13 |  8:11.70 |     19513    |    56407
        3  | 12:32.08 |  9:51.73 |     56408    |   100805
        4  | 22:24.06 |  8:43.74 |    100806    |   140104
        5  | 31:08.05 |  6:05.65 |    140105    |   167544
        6  | 39:45.70 | 34:12.05 |    178945    |   332849

Range status and errors

Selected range

     Filename C:\TEMP\Conjure One - Tears From The Moon\Tears From The Moon.wav

     Peak level 99.8 %
     Extraction speed 5.9 X
     Range quality 100.0 %
     Test CRC D390B37B
     Copy CRC D390B37B
     Copy OK

No errors occurred

AccurateRip summary

Track  1  not present in database
Track  2  not present in database
Track  3  not present in database
Track  4  not present in database
Track  5  not present in database

None of the tracks are present in the AccurateRip database

End of status report
Код:
Код:
-----------------------

DON'T MODIFY THIS FILE

-----------------------

PERFORMER: auCDtect Task Manager, ver. 1.5.1RC4 build 1.5.1.5
Copyright (c) 2008-2010 y-soft. All rights reserved
http:/y-soft.org

ANALYZER: auCDtect: CD records authenticity detector, version 0.8.2
Copyright (c) 2004 Oleg Berngardt. All rights reserved.
Copyright (c) 2004 Alexander Djourik. All rights reserved.

FILE: Tears From The Moon.flac
  Size: 268841219 Hash: 4CD2F8C22A0DF22FA9BFFE51132DA0EB Accuracy: -m0
  Conclusion: MPEG 95%
  Signature: B702C6FB754DB70977A850245E4D40503CF11819

Продолжительность: 00:25:16

Треклист:
01. Extraordinary Way (Antillas Mix) (07:46)
02. Extraordinary Way (Low End Specialists mix) (09:05)
03. Extraordinary Way (Antillas Mix - C1 Radio Edit - iTunes bonus track) (03:45)
04. Extraordinary Way (04:38)

Отсутствует.
Код:
Код:
-----------------------

DON'T MODIFY THIS FILE

-----------------------

PERFORMER: auCDtect Task Manager, ver. 1.5.1RC4 build 1.5.1.5
Copyright (c) 2008-2010 y-soft. All rights reserved
http:/y-soft.org

ANALYZER: auCDtect: CD records authenticity detector, version 0.8.2
Copyright (c) 2004 Oleg Berngardt. All rights reserved.
Copyright (c) 2004 Alexander Djourik. All rights reserved.

FILE: 04 - Extraordinary Way.flac
  Size: 34896872 Hash: 169E10EFEAEC3C5CE0652A14811D2F69 Accuracy: -m0
  Conclusion: CDDA 100%
  Signature: 9903B7BEE40521C4F8058D0A2A83C05BD568B69F
FILE: 03 - Extraordinary Way (Antillas Mix - C1 Radio Edit - iTunes bonus track).flac
  Size: 26171463 Hash: 73281F7C90906469AA9F7C5DDB1D4174 Accuracy: -m0
  Conclusion: MPEG 95%
  Signature: 72001F99B16312A2B7B9EBE94A2C87562DA16DD8
FILE: 02 - Extraordinary Way (Low End Specialists mix).flac
  Size: 61102567 Hash: C95B143F0C8E1AF1ECC72DD52E66DC2F Accuracy: -m0
  Conclusion: MPEG 95%
  Signature: F1E8B8FED8B03C4ED784ADCDE492B3268CFA2CA4
FILE: 01 - Extraordinary Way (Antillas Mix).flac
  Size: 52877877 Hash: F1837BBC3E5CE81ACAFDFB6E75E7873F Accuracy: -m0
  Conclusion: MPEG 95%
  Signature: 65B21CDAC6A70BA206EF52E703BF9FE2EAD430C1



Продолжительность: 00:54:16

Треклист:
01. Endless Dream (04:30)
02. Face The Music (04:35)
03. Pilgrimage (06:48)
04. One Word (04:40)
05. I Believe (06:07)
06. Beyond Being (07:07)
07. Extraordinary Way (04:40)
08. Dying Light (06:45)
09. Forever Lost (04:46)
10. Into the Escape (04:15)

Код:
Код:
Exact Audio Copy V1.0 beta 1 from 15. November 2010

EAC extraction logfile from 16. December 2010, 10:26

Conjure One / Extraordinary Ways

Used drive  : LITE-ON DVDRW LH-20A1L   Adapter: 1  ID: 0

Read mode               : Secure
Utilize accurate stream : Yes
Defeat audio cache      : Yes
Make use of C2 pointers : No

Read offset correction                      : 6
Overread into Lead-In and Lead-Out          : No
Fill up missing offset samples with silence : Yes
Delete leading and trailing silent blocks   : No
Null samples used in CRC calculations       : Yes
Used interface                              : Installed external ASPI interface

Used output format : Internal WAV Routines
Sample format      : 44.100 Hz; 16 Bit; Stereo

TOC of the extracted CD

     Track |   Start  |  Length  | Start sector | End sector
    ---------------------------------------------------------
        1  |  0:00.00 |  4:30.31 |         0    |    20280
        2  |  4:30.31 |  4:35.15 |     20281    |    40920
        3  |  9:05.46 |  6:48.21 |     40921    |    71541
        4  | 15:53.67 |  4:40.06 |     71542    |    92547
        5  | 20:33.73 |  6:07.46 |     92548    |   120118
        6  | 26:41.44 |  7:07.26 |    120119    |   152169
        7  | 33:48.70 |  4:40.65 |    152170    |   173234
        8  | 38:29.60 |  6:45.25 |    173235    |   203634
        9  | 45:15.10 |  4:46.01 |    203635    |   225085
       10  | 50:01.11 |  4:15.11 |    225086    |   244221

Range status and errors

Selected range

     Filename Z:\data\mp3\Seeding\Conjure One\2005-Extraordinary Ways\Extraordinary Ways.wav

     Peak level 99.9 %
     Extraction speed 0.6 X
     Range quality 100.0 %
     Test CRC 9567EB82
     Copy CRC 9567EB82
     Copy OK

No errors occurred

AccurateRip summary

Track  1  accurately ripped (confidence 26)  [7DE11C88]
Track  2  accurately ripped (confidence 26)  [9C395B80]
Track  3  accurately ripped (confidence 26)  [2C09FB91]
Track  4  accurately ripped (confidence 26)  [6DF75530]
Track  5  accurately ripped (confidence 26)  [3E6B1365]
Track  6  accurately ripped (confidence 26)  [C87B0F4E]
Track  7  accurately ripped (confidence 26)  [81A41D74]
Track  8  accurately ripped (confidence 26)  [6854E349]
Track  9  accurately ripped (confidence 24)  [56F0D688]
Track 10  accurately ripped (confidence 24)  [A1BF0D97]

All tracks accurately ripped

End of status report
Код:
Код:
-----------------------

DON'T MODIFY THIS FILE

-----------------------

PERFORMER: auCDtect Task Manager, ver. 1.5.1RC4 build 1.5.1.5
Copyright (c) 2008-2010 y-soft. All rights reserved
http:/y-soft.org

ANALYZER: auCDtect: CD records authenticity detector, version 0.8.2
Copyright (c) 2004 Oleg Berngardt. All rights reserved.
Copyright (c) 2004 Alexander Djourik. All rights reserved.

FILE: Extraordinary Ways.flac
  Size: 353369857 Hash: 8E48536FB83A93AA5FB6A84EC75CADE4 Accuracy: -m0
  Conclusion: CDDA 100%
  Signature: 04BDB78FE9712A5F64F9AA3B4AACFE8F1A1A6291

Продолжительность: 00:34:00

Треклист:
01. Face The Music (Kaskade Club Mix) (07:30)
02. Face The Music (Redanka Remix) (08:16)
03. Face The Music (Reloaded Mix by Jaded Alliance) (07:25)
04. Face The Music (Kaskade Club Mix Edit) (03:43)
05. Face The Music (Erick Muisue Remix) (07:05)

Отсутствует.
Код:
Код:
-----------------------

DON'T MODIFY THIS FILE

-----------------------

PERFORMER: auCDtect Task Manager, ver. 1.5.1RC4 build 1.5.1.5
Copyright (c) 2008-2010 y-soft. All rights reserved
http:/y-soft.org

ANALYZER: auCDtect: CD records authenticity detector, version 0.8.2
Copyright (c) 2004 Oleg Berngardt. All rights reserved.
Copyright (c) 2004 Alexander Djourik. All rights reserved.

FILE: 05 - Face The Music (Erick Muisue Remix).flac
  Size: 58672423 Hash: 20933EA6412028342D048EE827A0850E Accuracy: -m0
  Conclusion: MPEG 95%
  Signature: B967D9AC33172F49CE6595D23336C40A44A71D00
FILE: 04 - Face The Music (Kaskade Club Mix Edit).flac
  Size: 31082241 Hash: 0B0798C7A298BBD38A0E398D7C970236 Accuracy: -m0
  Conclusion: CDDA 100%
  Signature: 18FFD7D12BD1FD6010DA306CF18EC0300B6C2AB5
FILE: 03 - Face The Music (Reloaded Mix by Jaded Alliance).flac
  Size: 54665191 Hash: CF50F0C1A952060459B2470AF153218F Accuracy: -m0
  Conclusion: CDDA 100%
  Signature: 91363544928444A3553F9A5685CF440C227D753D
FILE: 02 - Face The Music (Redanka Remix).flac
  Size: 66064779 Hash: 64A34BC486827576B3B035A7A40151C0 Accuracy: -m0
  Conclusion: CDDA 99%
  Signature: 80DCCD99EF4E47B739E3705FCAFE157FD2788F34
FILE: 01 - Face The Music (Kaskade Club Mix).flac
  Size: 63294557 Hash: 797A4F7E77D46CE6FA77C4F0A3966CD1 Accuracy: -m0
  Conclusion: CDDA 100%
  Signature: 37EFA71517E676BC377D5E618349450B76EBC535

Продолжительность: 00:42:32

Треклист:
01. I Dream In Colour (Radio Edit) (04:19)
02. I Dream In Colour (Vegas Baby Radio Edit) (03:46)
03. I Dream In Colour (Vegas Baby Dub Remix) (07:07)
04. I Dream In Colour (Vegas Baby Club Remix) (07:57)
05. I Dream In Colour (Dub Chill Remix) (06:47)
06. Places That Don't Exist (Original Mix) (06:02)
07. I Dream In Colour (Album Version) (06:32)

Отсутствует.
Код:
Код:
-----------------------

DON'T MODIFY THIS FILE

-----------------------

PERFORMER: auCDtect Task Manager, ver. 1.5.1RC4 build 1.5.1.5
Copyright (c) 2008-2010 y-soft. All rights reserved
http:/y-soft.org

ANALYZER: auCDtect: CD records authenticity detector, version 0.8.2
Copyright (c) 2004 Oleg Berngardt. All rights reserved.
Copyright (c) 2004 Alexander Djourik. All rights reserved.

FILE: 07 - I Dream In Colour (Album Version).flac
  Size: 41399580 Hash: FD72FFDBE44F423C557AD310D833B172 Accuracy: -m0
  Conclusion: CDDA 100%
  Signature: 9F9FBF3723606B72BA22B1B6C5172FD1FFFAAA09
FILE: 06 - Places That Don't Exist (Original Mix).flac
  Size: 38223423 Hash: C04DE459732C7DFD759CA5DEDEDB256C Accuracy: -m0
  Conclusion: CDDA 99%
  Signature: 56DFFEFA843C586E235A67D13244CB76C9B7BBB2
FILE: 05 - I Dream In Colour (Dub Chill Remix).flac
  Size: 36524181 Hash: F977F3FFAF60660EA1B437B28A3D37CE Accuracy: -m0
  Conclusion: CDDA 100%
  Signature: A8F3808A6754A93CDF09C93267892B6AEDB675E9
FILE: 04 - I Dream In Colour (Vegas Baby Club Remix).flac
  Size: 60208859 Hash: A15920DB3C35153E67E61715F5943D85 Accuracy: -m0
  Conclusion: CDDA 100%
  Signature: 35E37BDC0D0027FC3B66880BE3C14CFAF8B9C8F0
FILE: 03 - I Dream In Colour (Vegas Baby Dub Remix).flac
  Size: 54675865 Hash: D854DCBC21C9CA7C51D48F988C99EA7E Accuracy: -m0
  Conclusion: CDDA 100%
  Signature: 5A5780DD26976FFF7B2AD8E1A8A97B3F83E78406
FILE: 02 - I Dream In Colour (Vegas Baby Radio Edit).flac
  Size: 28911892 Hash: 86BB6E74F762A932AF570BC7901CD4B3 Accuracy: -m0
  Conclusion: CDDA 99%
  Signature: 76F757BC2483305711E2C1A12E6A90DA3CB72C30
FILE: 01 - I Dream In Colour (Radio Edit).flac
  Size: 29063112 Hash: 79FA3598BF9F7E7B7485C57DFDC08081 Accuracy: -m0
  Conclusion: CDDA 100%
  Signature: 6871D348C7FB5D58B2765D3DB838A2C6C3A4B01C

Продолжительность: 01:04:51

Треклист:
01. Like Ice (06:02)
02. Places That Don't Exist (06:00)
03. Zephyr (04:56)
04. Nargis (05:57)
05. Nomadic Code (08:50)
06. The Distance (03:53)
07. I Dream In Colour (06:31)
08. Demon Inside (05:14)
09. Existential Exile (05:49)
10. Run For Cover (06:23)
11. Oligarch (05:10)

Код:
Код:
Exact Audio Copy V1.0 beta 1 from 15. November 2010

EAC extraction logfile from 12. July 2011, 11:35

Conjure One / Exilarch

Used drive  : LITE-ON DVDRW LH-20A1L   Adapter: 5  ID: 0

Read mode               : Secure
Utilize accurate stream : Yes
Defeat audio cache      : Yes
Make use of C2 pointers : No

Read offset correction                      : 6
Overread into Lead-In and Lead-Out          : No
Fill up missing offset samples with silence : Yes
Delete leading and trailing silent blocks   : No
Null samples used in CRC calculations       : Yes
Used interface                              : Installed external ASPI interface

Used output format : Internal WAV Routines
Sample format      : 44.100 Hz; 16 Bit; Stereo

TOC of the extracted CD

     Track |   Start  |  Length  | Start sector | End sector
    ---------------------------------------------------------
        1  |  0:00.00 |  6:04.42 |         0    |    27341
        2  |  6:04.42 |  6:02.61 |     27342    |    54552
        3  | 12:07.28 |  4:58.12 |     54553    |    76914
        4  | 17:05.40 |  5:59.50 |     76915    |   103889
        5  | 23:05.15 |  8:50.68 |    103890    |   143707
        6  | 31:56.08 |  3:55.00 |    143708    |   161332
        7  | 35:51.08 |  6:32.63 |    161333    |   190795
        8  | 42:23.71 |  5:16.67 |    190796    |   214562
        9  | 47:40.63 |  5:51.56 |    214563    |   240943
       10  | 53:32.44 |  6:25.29 |    240944    |   269847
       11  | 59:57.73 |  5:10.53 |    269848    |   293150

Range status and errors

Selected range

     Filename Z:\data\mp3\Seeding Archive\Conjure One\2011-Exilarch [UK]\Exilarch (UK).wav

     Peak level 98.8 %
     Extraction speed 0.4 X
     Range quality 100.0 %
     Test CRC CF302652
     Copy CRC CF302652
     Copy OK

No errors occurred

AccurateRip summary

Track  1  not present in database
Track  2  not present in database
Track  3  not present in database
Track  4  not present in database
Track  5  not present in database
Track  6  not present in database
Track  7  not present in database
Track  8  not present in database
Track  9  not present in database
Track 10  not present in database
Track 11  not present in database

None of the tracks are present in the AccurateRip database

End of status report
Код:
Код:
-----------------------

DON'T MODIFY THIS FILE

-----------------------

PERFORMER: auCDtect Task Manager, ver. 1.5.1RC4 build 1.5.1.5
Copyright (c) 2008-2010 y-soft. All rights reserved
http:/y-soft.org

ANALYZER: auCDtect: CD records authenticity detector, version 0.8.2
Copyright (c) 2004 Oleg Berngardt. All rights reserved.
Copyright (c) 2004 Alexander Djourik. All rights reserved.

FILE: Exilarch (UK).flac
  Size: 424523203 Hash: C98F46D589D48E1166A1B7627C0BA014 Accuracy: -m0
  Conclusion: CDDA 100%
  Signature: 0955CB927C9C74A509A0A0E724E87CC78F657C5D

Продолжительность: 00:43:25

Треклист:
01. Like Ice (Marcus Schossow Extended Remix) (09:24)
02. Like Ice (Album Edit) (04:37)
03. Like Ice (Rampue Remix) (06:59)
04. Like Ice (Chris B Remix) (06:24)
05. Like Ice (Marcus Schossow Edit) (04:22)
06. Like Ice (Sine Here Remix) (06:00)
07. Like Ice (Drops Distorted Implant) (05:36)

Отсутсвует.
Код:
Код:
-----------------------

DON'T MODIFY THIS FILE

-----------------------

PERFORMER: auCDtect Task Manager, ver. 1.5.1RC4 build 1.5.1.5
Copyright (c) 2008-2010 y-soft. All rights reserved
http:/y-soft.org

ANALYZER: auCDtect: CD records authenticity detector, version 0.8.2
Copyright (c) 2004 Oleg Berngardt. All rights reserved.
Copyright (c) 2004 Alexander Djourik. All rights reserved.

FILE: 07 - Like Ice (Drops Distorted Implant).flac
  Size: 44675941 Hash: 249E1CE0629DB337EC8CD267EE00191F Accuracy: -m0
  Conclusion: CDDA 100%
  Signature: A89DDB84EB5EFF8513D2B1BE5B526FABA57E2500
FILE: 06 - Like Ice (Sine Here Remix).flac
  Size: 44882970 Hash: F37A556B05EEA47B7F58352CC7348DB4 Accuracy: -m0
  Conclusion: CDDA 100%
  Signature: BED3856931BD7DC21C334FE554B3140F0E06845E
FILE: 05 - Like Ice (Marcus Schossow Edit).flac
  Size: 33868560 Hash: D954C3CFA51178E465E31CB93470AD4C Accuracy: -m0
  Conclusion: CDDA 100%
  Signature: BD360CBEF89752E054E2FFE6DC99E07D7BB8C755
FILE: 04 - Like Ice (Chris B Remix).flac
  Size: 49208005 Hash: 8A1DE9A67D6967AE57098E8B7E3E57F0 Accuracy: -m0
  Conclusion: CDDA 99%
  Signature: 5894B6F449346305459686CA27E269F2FED556B1
FILE: 03 - Like Ice (Rampue Remix).flac
  Size: 50221870 Hash: 6E03A23479DA800368279F4FA6826270 Accuracy: -m0
  Conclusion: CDDA 100%
  Signature: CAF87D8A7860B5A04D14D6661D699E1784F8D100
FILE: 02 - Like Ice (Album Edit).flac
  Size: 33759536 Hash: 91FBAD16BCC5459B2A2D55E628EC3352 Accuracy: -m0
  Conclusion: CDDA 99%
  Signature: 1E8F441ABA1AD107AF308210170502C81594308E
FILE: 01 - Like Ice (Marcus Schossow Extended Remix).flac
  Size: 69565562 Hash: 1780E1B0E9A1B4EA7ABCE2F40277EC21 Accuracy: -m0
  Conclusion: CDDA 100%
  Signature: 719EA1AA51E043BBD73F7FDEBD7D8D67AB885056

Правила, инструкции, FAQ!!!
Торрент  Добавлен [26 дек 2015, 22:37] Скачать торрент Магнет ссылка
Скачать торрент
[ Размер 83.4 КБ / Просмотров 159 ]

Статус
Проверен 
 
Размер  3.52 ГБ
Приватный: Нет (DHT включён)
.torrent скачан  10
Как залить торрент? | Как скачать Torrent? | Ошибка в торренте? Качайте магнет  


     Отправить личное сообщение
   

СообщениеДобавлено: 27 окт 2018, 14:04 

Ответить с цитатой 

Зарегистрированные пользователи
Зарегистрированные пользователи

Стаж: 1 год 7 месяцев 12 дней
Раздал: 143.48 МБ
Скачал: 0 байт
Ратио: Seed.
Торренты: 0
    Здравствуйте! Спасибо большое за Альбом)))
    С уважением Stairss)))


Профиль     Отправить личное сообщение
   
Страница 1 из 1
Показать сообщения за:  Поле сортировки  
Начать новую тему Ответить на тему

   Похожие торренты   Автор   Ответы   Просмотры   Последнее сообщение 
В этой теме нет новых непрочитанных сообщений. Скачать торрент Проверен (New Age / Ambient) Conjure One - Conjure One / U.S. Limited Edition (2CD) - 2002, APE (image + .cue)

в форуме Instrumental/New Age/Meditative/Relax, Размер: 604.91 МБ, Здоровье: 100%

Anonymous

0
2|0

33
2

06 янв 2017, 20:22

Anonymous Перейти к последнему сообщению

В этой теме нет новых непрочитанных сообщений. Скачать торрент Проверен Conjure One - 7 Albums (2002..2006) [MP3|192..320 kbps]<Electronic, Ambient>

в форуме Easy listening, Размер: 879.48 МБ, Здоровье: 100%

Anonymous

0
1|0

15
0

14 янв 2018, 12:27

Anonymous Перейти к последнему сообщению

В этой теме нет новых непрочитанных сообщений. Скачать торрент Проверен (Pop) [12"] [24/192] Conjure One - Conjure One - 2017(2002), FLAC (image+.cue)

в форуме Зарубежная поп-музыка (оцифровки), Размер: 1.96 ГБ, Здоровье: 100%

Anonymous

0
4|4

42
3

22 янв 2018, 03:02

Anonymous Перейти к последнему сообщению

В этой теме нет новых непрочитанных сообщений. Скачать торрент Проверен Conjure One - Exilarch (2010) [MP3|320 kbps]<Downtempo, Ambient>

в форуме Easy listening, Размер: 138.26 МБ, Здоровье: 100%

Anonymous

0
1|1

21
0

14 янв 2018, 12:41

Anonymous Перейти к последнему сообщению

В этой теме нет новых непрочитанных сообщений. Скачать торрент Проверен (Downtempo, Enigmatic, Trance) [CD, Web] Conjure One - Дискография - 2002-2015, FLAC (image+.cue, tracks/web), 30 релизов, 22 CD, 11 веб-релизов, lossless

в форуме Instrumental/New Age/Meditative/Relax, Размер: 7.95 ГБ, Здоровье: 100%

Anonymous

0
80|43

175
5

06 янв 2017, 22:42

Anonymous Перейти к последнему сообщению



Сейчас этот форум просматривают: нет зарегистрированных пользователей и гости: 1


Вы не можете начинать темы
Вы не можете отвечать на сообщения
Вы не можете редактировать свои сообщения
Вы не можете удалять свои сообщения
Вы не можете добавлять вложения

Перейти:  
Ресурс не предоставляет электронные версии произведений, а занимается лишь коллекционированием и каталогизацией ссылок, присылаемых и публикуемых на форуме нашими читателями. Если вы являетесь правообладателем какого-либо представленного материала и не желаете чтобы ссылка на него находилась в нашем каталоге, свяжитесь с нами и мы незамедлительно удалим её. Файлы для обмена на трекере предоставлены пользователями сайта, и администрация не несёт ответственности за их содержание. Просьба не заливать файлы, защищенные авторскими правами, а также файлы нелегального содержания!
cron