На всех торрентах на трекере установлена скидка на скачивание в размере 100 процентов(а).
 Возможность скачивания торрента НЕ зависит от ограничений при низком ратио, низком аплоаде, требуемом ратио или требуемом аплоаде.


Начать новую тему Ответить на тему
Статистика раздачи
Размер: 6.56 ГБ | Добавлен: 18 янв 2014, 18:20 | Скачали: 4
Сидеров: 37  [0 байт/сек]    Личеров: 12  [0 байт/сек]
Пред. тема | След. тема 

Автор
Сообщение

СообщениеДобавлено: 18 янв 2014, 18:20 

Ответить с цитатой 

Dio - Holy Diver Live

Жанр: Heavy Metal
Продолжительность: 01:54:00
Год выпуска: 2006
Описание:
В 2005 году в течение двух месяцев Ронни Джеймс Дио давал беспрецендетный по своему содержанию тур. В рамках концертов исполнялся от первой и до последней песни первый и самый известный альбом группы DIO - "Holy Diver" 1983 года. Материалом для Блю-рей издания послужил последний концерт тура по Великобритании, состоявшийся 22 октября 2005 г. в лондонской Астории.
Треклист:
1. Tarot Woman
2. Sign of the Southern Cross
3. One Night in the City
4. Stand Up and Shout
5. Holy Diver
6. Gypsy
7. Caught in the Middle
8. Don’t Talk to Strangers
9. Straight Through the Heart
10. Invisible
11. Rainbow in the Dark
12. Shame on the Night
13. Gates of Babylon
14. Heaven & Hell
15. Man on the Silver Mountain
16. Long Live Rock ‘N’ Roll
17. We Rock

Качество: BDRip
Контейнер: MKV
Видео кодек: H.264
Аудио кодек: DTS
Видео: 1280x720, x264, 23.976 fps, 6727 kbps
Аудио: DTS, 48.0 KHz, 1 510 Kbps
Скриншоты







MediaInfo
Код:
General
Complete name                    : D:\Dio Holy Diver Live 2006 720p BluRay x264.mkv
Format                           : Matroska
File size                        : 6.56 GiB
Duration                         : 1h 54mn
Overall bit rate                 : 8 238 Kbps
Encoded date                     : UTC 2010-09-15 04:13:31
Writing application              : mkvmerge v4.3.0 ('Escape from the Island') built on Sep  5 2010 10:30:51
Writing library                  : libebml v1.0.0 + libmatroska v1.0.0

Video
ID                               : 1
Format                           : AVC
Format/Info                      : Advanced Video Codec
Format profile                   : High@L4.1
Format settings, CABAC           : Yes
Format settings, ReFrames        : 5 frames
Format settings, GOP             : M=4, N=16
Muxing mode                      : Container profile=Unknown@4.1
Codec ID                         : V_MPEG4/ISO/AVC
Duration                         : 1h 54mn
Bit rate                         : 6 727 Kbps
Width                            : 1 280 pixels
Height                           : 720 pixels
Display aspect ratio             : 16:9
Frame rate                       : 29.970 fps
Color space                      : YUV
Chroma subsampling               : 4:2:0
Bit depth                        : 8 bits
Scan type                        : Progressive
Bits/(Pixel*Frame)               : 0.244
Stream size                      : 5.23 GiB (80%)
Writing library                  : x264 core 104 r1713 c276662
Encoding settings                : cabac=1 / ref=5 / deblock=1:0:0 / analyse=0x3:0x133 / me=umh / subme=7 / psy=1 / psy_rd=1.00:0.00 / mixed_ref=1
/ me_range=16 / chroma_me=1 / trellis=1 / 8x8dct=1 / cqm=0 / deadzone=21,11 / fast_pskip=0 / chroma_qp_offset=-2 / threads=6 / sliced_threads=0
/ nr=0 / decimate=1 / interlaced=0 / constrained_intra=0 / bframes=3 / b_pyramid=2 / b_adapt=1 / b_bias=0 / direct=1 / weightb=1 / open_gop=0
/ weightp=2 / keyint=250 / keyint_min=25 / scenecut=40 / intra_refresh=0 / rc_lookahead=40 / rc=2pass / mbtree=1 / bitrate=6727 / ratetol=1.0
/ qcomp=0.60 / qpmin=10 / qpmax=51 / qpstep=4 / cplxblur=20.0 / qblur=0.5 / ip_ratio=1.40 / aq=1:1.00

Audio
ID                               : 2
Format                           : DTS
Format/Info                      : Digital Theater Systems
Codec ID                         : A_DTS
Duration                         : 1h 54mn
Bit rate mode                    : Constant
Bit rate                         : 1 510 Kbps
Channel(s)                       : 6 channels
Channel positions                : Front: L C R, Side: L R, LFE
Sampling rate                    : 48.0 KHz
Bit depth                        : 16 bits
Stream size                      : 1.20 GiB (18%)

Ronnie James Dio
Правила, инструкции, FAQ!!!
Торрент  Добавлен [18 янв 2014, 18:20] Скачать торрент Магнет ссылка
Скачать торрент
[ Размер 33.31 КБ / Просмотров 86 ]

Статус  
 
Размер  6.56 ГБ
Приватный: Нет (DHT включён)
.torrent скачан  4
Как залить торрент? | Как скачать Torrent? | Ошибка в торренте? Качайте магнет  


     Отправить личное сообщение
   
Страница 1 из 1
Показать сообщения за:  Поле сортировки  
Начать новую тему Ответить на тему

   Похожие торренты   Автор   Ответы   Просмотры   Последнее сообщение 
В этой теме нет новых непрочитанных сообщений. Скачать торрент Проверен Dio - Holy Diver Live [2010, Heavy Metal, BDRemux 1080i]

в форуме Концерты (HD-Video), Размер: 16.94 ГБ, Здоровье: 21%

Anonymous

0
8|38

154
1

23 окт 2016, 19:04

Anonymous Перейти к последнему сообщению

В этой теме нет новых непрочитанных сообщений. Скачать торрент Проверен Dio - Holy Diver Live [2010, Hard Rock, BDRip 1080p]

в форуме Концерты (HD-Video), Размер: 10.76 ГБ, Здоровье: 100%

Anonymous

0
256|18

82
7

01 май 2015, 20:11

Anonymous Перейти к последнему сообщению

В этой теме нет новых непрочитанных сообщений. Скачать торрент Проверен [TR24][OF] Dio - Holy Diver - 1983/2015 (Heavy Metal)

в форуме Hi-Res stereo (рок), Размер: 957.02 МБ, Здоровье: 100%

Anonymous

0
296|48

326
32

24 авг 2016, 11:11

Anonymous Перейти к последнему сообщению

В этой теме нет новых непрочитанных сообщений. Скачать торрент Проверен (Heavy Metal) [LP] [24/96] Dio - 1983 - Holy Diver, FLAC (image+.cue)

в форуме Зарубежный рок (оцифровки), Размер: 876.18 МБ, Здоровье: 100%

Anonymous

0
2|0

53
0

26 авг 2016, 16:33

Anonymous Перейти к последнему сообщению

В этой теме нет новых непрочитанных сообщений. Скачать торрент Проверен Dio - Holy Diver Live [2010, Hard Rock, Blu-ray]

в форуме Концерты (HD-Video), Размер: 20.82 ГБ, Здоровье: 100%

Anonymous

0
25|7

88
0

29 апр 2015, 19:34

Anonymous Перейти к последнему сообщению



Сейчас этот форум просматривают: нет зарегистрированных пользователей и гости: 2


Вы не можете начинать темы
Вы не можете отвечать на сообщения
Вы не можете редактировать свои сообщения
Вы не можете удалять свои сообщения
Вы не можете добавлять вложения

Перейти:  
Ресурс не предоставляет электронные версии произведений, а занимается лишь коллекционированием и каталогизацией ссылок, присылаемых и публикуемых на форуме нашими читателями. Если вы являетесь правообладателем какого-либо представленного материала и не желаете чтобы ссылка на него находилась в нашем каталоге, свяжитесь с нами и мы незамедлительно удалим её. Файлы для обмена на трекере предоставлены пользователями сайта, и администрация не несёт ответственности за их содержание. Просьба не заливать файлы, защищенные авторскими правами, а также файлы нелегального содержания!
cron