На всех торрентах на трекере установлена скидка на скачивание в размере 100 процентов(а).
 Возможность скачивания торрента НЕ зависит от ограничений при низком ратио, низком аплоаде, требуемом ратио или требуемом аплоаде.


Начать новую тему Ответить на тему
Статистика раздачи
Размер: 10.73 ГБ | Добавлен: 18 янв 2014, 18:03 | Скачали: 11
Сидеров: 23  [0 байт/сек]    Личеров: 3  [0 байт/сек]
Пред. тема | След. тема 

Автор
Сообщение

СообщениеДобавлено: 18 янв 2014, 18:03 

Ответить с цитатой 



Жанр Symphonic metal / Gothic metal
Продолжительность 01:34:24 + 01:24:40
Год выпуска 2013


Описание
Шоу, посвящённое 10-ти летию группы, прошедшее 23 марта 2013 года в Эйндховене. В концерте принимали участие камерный оркестр Extended Reményi Ede и хор Национального театра Miskolc, а также вокалистка Nightwish и ReVamp Флор Янсен.

Источник
Epica - Retrospect:10th anniversary. Blu Ray

Part 1
Треклист

01. Introspect
02. Monopoly On Truth
03. Sensorium
04. Unleashed
05. Martyr Of The Free Word
06. Chasing The Dragon
07. Presto
08. Never Enough
09. Stabat Mater Dolorosa
10. Twin Flames
11. Serenade Of Self-Destruction
12. Orchestral Medley
13. The Divine Conspiracy ~Anniversary Edition~
14. Delirium
15. Blank Infinity

Качество
BDRip 720p
Контейнер
MKV
Видео кодек
H.264
Аудио кодек
PCM /AC3
Видео
MPEG-4 AVC / 1280*720 / 6588 kbps / 23.97 fps
Аудио #1
PCM / 1536 kbps / 48.0 khz / 2 ch
Аудио #2
AC3 / 448 kbps / 48.0 khz / 6 ch

Сэмплик
MI
Код:
Общее
Уникальный идентификатор                 : 205804280794406903151309635358700141852 (0x9AD47673EEF0CFAB979705D6C594FD1C)
Полное имя                               : D:\Video\Epica - Retrospect - 10th anniversary\Part 1.mkv
Формат                                   : Matroska
Версия формата                           : Version 2
Размер файла                             : 5,65 Гбайт
Продолжительность                        : 1 ч. 34 м.
Общий поток                              : 8574 Кбит/сек
Дата кодирования                         : UTC 2014-01-07 20:38:14
Программа кодирования                    : mkvmerge v5.6.0 ('Kenya Kane') built on May 27 2012 16:44:04
Библиотека кодирования                   : libebml v1.2.3 + libmatroska v1.3.0

Видео
Идентификатор                            : 1
Формат                                   : AVC
Формат/Информация                        : Advanced Video Codec
Профиль формата                          : High@L4.1
Параметр CABAC формата                   : Да
Параметр ReFrames формата                : 8 кадров
Идентификатор кодека                     : V_MPEG4/ISO/AVC
Продолжительность                        : 1 ч. 34 м.
Номинальный битрейт                      : 6588 Кбит/сек
Ширина                                   : 1280 пикселей
Высота                                   : 720 пикселей
Соотношение сторон                       : 16:9
Режим частоты кадров                     : Постоянный
Частота кадров                           : 23,976 кадра/сек
Цветовое пространство                    : YUV
Субдискретизация насыщенности            : 4:2:0
Битовая глубина                          : 8 бит
Тип развёртки                            : Прогрессивная
Бит/(Пиксели*Кадры)                      : 0.298
Библиотека кодирования                   : x264 core 138 r2358 9e941d1
Настройки программы                      : cabac=1 / ref=8 / deblock=1:-1:-1 / analyse=0x3:0x133 / me=umh / subme=9 / psy=1 / psy_rd=1.00:0.15 / mixed_ref=1 / me_range=16 / chroma_me=1 / trellis=2 / 8x8dct=1 / cqm=0 / deadzone=21,11 / fast_pskip=1 / chroma_qp_offset=-3 / threads=3 / lookahead_threads=1 / sliced_threads=0 / nr=0 / decimate=1 / interlaced=0 / bluray_compat=0 / constrained_intra=0 / bframes=3 / b_pyramid=2 / b_adapt=2 / b_bias=0 / direct=3 / weightb=1 / open_gop=0 / weightp=2 / keyint=240 / keyint_min=23 / scenecut=40 / intra_refresh=0 / rc_lookahead=60 / rc=2pass / mbtree=1 / bitrate=6588 / ratetol=1.0 / qcomp=0.60 / qpmin=0 / qpmax=69 / qpstep=4 / cplxblur=20.0 / qblur=0.5 / vbv_maxrate=50000 / vbv_bufsize=50000 / nal_hrd=none / ip_ratio=1.40 / aq=1:1.00
Язык                                     : English
Default                                  : Да
Forced                                   : Нет

Аудио #1
Идентификатор                            : 2
Формат                                   : PCM
Идентификатор кодека                     : A_PCM/INT/LIT
Продолжительность                        : 1 ч. 34 м.
Вид битрейта                             : Постоянный
Каналы                                   : 2 канала
Частота                                  : 48,0 КГц
Битовая глубина                          : 16 бит
Default                                  : Да
Forced                                   : Нет

Аудио #2
Идентификатор                            : 3
Формат                                   : AC-3
Формат/Информация                        : Audio Coding 3
Расширение режима                        : CM (complete main)
Параметр Endianness формата              : Big
Идентификатор кодека                     : A_AC3
Продолжительность                        : 1 ч. 34 м.
Вид битрейта                             : Постоянный
Битрейт                                  : 448 Кбит/сек
Каналы                                   : 6 каналов
Расположение каналов                     : Front: L C R, Side: L R, LFE
Частота                                  : 48,0 КГц
Битовая глубина                          : 16 бит
Метод сжатия                             : С потерями
Размер потока                            : 303 Мбайт (5%)
Default                                  : Нет
Forced                                   : Нет

Меню
00:00:00.000                             : en:Introspect
00:04:39.279                             : en:Monopoly On Truth
00:11:48.708                             : en:Sensorium
00:17:45.064                             : en: Unleashed
00:24:09.447                             : en:Martyr Of The Free Word
00:30:36.334                             : en:Chasing The Dragon
00:38:44.322                             : en:Presto
00:42:20.538                             : en:Never Enough
00:47:50.868                             : en:Stabat Mater Dolorosa
00:52:50.667                             : en:Twin Flames
00:58:15.992                             : en:Serenade Of Self-Destruction
01:08:31.607                             : en: Orchestral Medley
01:16:25.581                             : en:The Divine Conspiracy
01:24:04.039                             : en:Delirium
01:30:10.905                             : en:Blank Infinity
Скриншоты
Part 2
Треклист

01. The Obsessive Devotion
02. Retrospect
03. Battle Of The Heroes & Imperial March
04. Quietus
05. The Phantom Agony
06. Cry For The Moon
07. Sancta Terra
08. Design Your Universe
09. Storm The Sorrow
10. Consign To Oblivion
11. Outrospect

Качество
BDRip 720p
Контейнер
MKV
Видео кодек
H.264
Аудио кодек
PCM /AC3
Видео
MPEG-4 AVC / 1280*720 / 6588 kbps / 24.0 fps
Аудио #1
PCM / 1536 kbps / 48.0 khz / 2 ch
Аудио #2
AC3 / 448 kbps / 48.0 khz / 6 ch

Сэмплик
MI
Код:
Общее
Уникальный идентификатор                 : 179815282488146819080682183857741570189 (0x874729E8423CFF029F8C1776CB51208D)
Полное имя                               : D:\Video\Epica - Retrospect - 10th anniversary\Part 2.mkv
Формат                                   : Matroska
Версия формата                           : Version 2
Размер файла                             : 5,07 Гбайт
Продолжительность                        : 1 ч. 24 м.
Общий поток                              : 8575 Кбит/сек
Дата кодирования                         : UTC 2014-01-10 17:00:28
Программа кодирования                    : mkvmerge v5.6.0 ('Kenya Kane') built on May 27 2012 16:44:04
Библиотека кодирования                   : libebml v1.2.3 + libmatroska v1.3.0

Видео
Идентификатор                            : 1
Формат                                   : AVC
Формат/Информация                        : Advanced Video Codec
Профиль формата                          : High@L4.1
Параметр CABAC формата                   : Да
Параметр ReFrames формата                : 8 кадров
Идентификатор кодека                     : V_MPEG4/ISO/AVC
Продолжительность                        : 1 ч. 24 м.
Номинальный битрейт                      : 6588 Кбит/сек
Ширина                                   : 1280 пикселей
Высота                                   : 720 пикселей
Соотношение сторон                       : 16:9
Режим частоты кадров                     : Постоянный
Частота кадров                           : 24,000 кадра/сек
Цветовое пространство                    : YUV
Субдискретизация насыщенности            : 4:2:0
Битовая глубина                          : 8 бит
Тип развёртки                            : Прогрессивная
Бит/(Пиксели*Кадры)                      : 0.298
Библиотека кодирования                   : x264 core 138 r2358 9e941d1
Настройки программы                      : cabac=1 / ref=8 / deblock=1:-1:-1 / analyse=0x3:0x133 / me=umh / subme=9 / psy=1 / psy_rd=1.00:0.15 / mixed_ref=1 / me_range=16 / chroma_me=1 / trellis=2 / 8x8dct=1 / cqm=0 / deadzone=21,11 / fast_pskip=1 / chroma_qp_offset=-3 / threads=3 / lookahead_threads=1 / sliced_threads=0 / nr=0 / decimate=1 / interlaced=0 / bluray_compat=0 / constrained_intra=0 / bframes=3 / b_pyramid=2 / b_adapt=2 / b_bias=0 / direct=3 / weightb=1 / open_gop=0 / weightp=2 / keyint=240 / keyint_min=24 / scenecut=40 / intra_refresh=0 / rc_lookahead=60 / rc=2pass / mbtree=1 / bitrate=6588 / ratetol=1.0 / qcomp=0.60 / qpmin=0 / qpmax=69 / qpstep=4 / cplxblur=20.0 / qblur=0.5 / vbv_maxrate=50000 / vbv_bufsize=50000 / nal_hrd=none / ip_ratio=1.40 / aq=1:1.00
Язык                                     : English
Default                                  : Да
Forced                                   : Нет

Аудио #1
Идентификатор                            : 2
Формат                                   : PCM
Идентификатор кодека                     : A_PCM/INT/LIT
Продолжительность                        : 1 ч. 24 м.
Вид битрейта                             : Постоянный
Каналы                                   : 2 канала
Частота                                  : 48,0 КГц
Битовая глубина                          : 16 бит
Default                                  : Да
Forced                                   : Нет

Аудио #2
Идентификатор                            : 3
Формат                                   : AC-3
Формат/Информация                        : Audio Coding 3
Расширение режима                        : CM (complete main)
Параметр Endianness формата              : Big
Идентификатор кодека                     : A_AC3
Продолжительность                        : 1 ч. 24 м.
Вид битрейта                             : Постоянный
Битрейт                                  : 448 Кбит/сек
Каналы                                   : 6 каналов
Расположение каналов                     : Front: L C R, Side: L R, LFE
Частота                                  : 48,0 КГц
Битовая глубина                          : 16 бит
Метод сжатия                             : С потерями
Размер потока                            : 271 Мбайт (5%)
Default                                  : Нет
Forced                                   : Нет

Меню
00:00:54.041                             : en:The Obsessive Devotion
00:09:10.541                             : en:Retrospect
00:13:31.791                             : en:Battle Of The Heroes & Imperial March
00:20:27.208                             : en:Quietus
00:24:50.500                             : en:The Phantom Agony
00:34:02.041                             : en:Cry For The Moon
00:46:10.750                             : en:Sancta Terra
00:52:06.125                             : en:Design Your Universe
01:04:53.875                             : en:Storm The Sorrow
01:10:55.250                             : en:Consign To Oblivion
01:20:36.833                             : en:Outrospect
Скриншоты
Правила, инструкции, FAQ!!!
Торрент  Добавлен [18 янв 2014, 18:03] Скачать торрент Магнет ссылка
Скачать торрент
[ Размер 27.49 КБ / Просмотров 39 ]

Статус  
 
Размер  10.73 ГБ
Приватный: Нет (DHT включён)
.torrent скачан  11
Как залить торрент? | Как скачать Torrent? | Ошибка в торренте? Качайте магнет  


     Отправить личное сообщение
   
Страница 1 из 1
Показать сообщения за:  Поле сортировки  
Начать новую тему Ответить на тему

   Похожие торренты   Автор   Ответы   Просмотры   Последнее сообщение 
В этой теме нет новых непрочитанных сообщений. Скачать торрент Проверен Epica - Retrospect 10th anniversary [2013, Symphonic metal, Gothic metal, BDRip 720p]

в форуме Концерты (HD-Video), Размер: 7.54 ГБ, Здоровье: 100%

Anonymous

0
15|13

114
2

23 окт 2016, 19:16

Anonymous Перейти к последнему сообщению

В этой теме нет новых непрочитанных сообщений. Скачать торрент Проверен Epica - Retrospect 10th anniversary [2013, Symphonic metal, Gothic metal, BDRip 1080p]

в форуме Концерты (HD-Video), Размер: 13.56 ГБ, Здоровье: 100%

Anonymous

0
16|6

82
3

23 окт 2016, 16:24

Anonymous Перейти к последнему сообщению

В этой теме нет новых непрочитанных сообщений. Скачать торрент Проверен Epica - Retrospect (2013) {10th anniversary 2-Disc Edition} Blu-Ray [1080p] [2013, Symphonic metal, Gothic metal, Blu-ray]

в форуме Концерты (HD-Video), Размер: 42.49 ГБ, Здоровье: 100%

Anonymous

0
14|10

70
3

23 окт 2016, 16:28

Anonymous Перейти к последнему сообщению

В этой теме нет новых непрочитанных сообщений. Скачать торрент Epica - Retrospect [10th anniversary] (2013) HDRip

в форуме Концерты, Размер: 2.72 ГБ, Здоровье: 100%

Anonymous

0
9|0

230
54

28 ноя 2013, 18:47

Anonymous Перейти к последнему сообщению

В этой теме нет новых непрочитанных сообщений. Скачать торрент Проверен [TR24][OF] Epica - Epica vs Attack On Titan Songs - EP - 2017 (Gothic Metal / Symphonic Power Metal)

в форуме Hi-Res stereo (рок), Размер: 547.77 МБ, Здоровье: 100%

Anonymous

0
20|4

107
5

15 апр 2018, 07:26

Anonymous Перейти к последнему сообщению



Сейчас этот форум просматривают: нет зарегистрированных пользователей и гости: 0


Вы не можете начинать темы
Вы не можете отвечать на сообщения
Вы не можете редактировать свои сообщения
Вы не можете удалять свои сообщения
Вы не можете добавлять вложения

Перейти:  
Ресурс не предоставляет электронные версии произведений, а занимается лишь коллекционированием и каталогизацией ссылок, присылаемых и публикуемых на форуме нашими читателями. Если вы являетесь правообладателем какого-либо представленного материала и не желаете чтобы ссылка на него находилась в нашем каталоге, свяжитесь с нами и мы незамедлительно удалим её. Файлы для обмена на трекере предоставлены пользователями сайта, и администрация не несёт ответственности за их содержание. Просьба не заливать файлы, защищенные авторскими правами, а также файлы нелегального содержания!
cron