На всех торрентах на трекере установлена скидка на скачивание в размере 100 процентов(а).
 Возможность скачивания торрента НЕ зависит от ограничений при низком ратио, низком аплоаде, требуемом ратио или требуемом аплоаде.


Начать новую тему Ответить на тему
Статистика раздачи
Размер: 12.02 ГБ | Добавлен: 19 ноя 2013, 10:03 | Скачали: 4
Сидеров: 5  [0 байт/сек]    Личеров: 2  [0 байт/сек]
Пред. тема | След. тема 

Автор
Сообщение

СообщениеДобавлено: 19 ноя 2013, 10:03 

Ответить с цитатой 

Eric Clapton's: Crossroads Guitar Festival (2013) BDRip [720p]


Год выпуска: 2013
Производство: США / Parallel 28 Equipe
Режиссер: Мартин Аткинс
Жанр: Blues, Rock, Country, Bluegrass
Перевод: Отсутствует
Язык: Английский
Субтитры: Отсутствуют
Дата мировой премьеры: 13 августа 2013
Описание фильма:
Crossroads Guitar Festival — музыкальный фестиваль и благотворительный концерт, впервые проведённый в 2004 году. Фестиваль проводится в пользу основанного Эриком Клэптоном центра лечения наркомании Crossroads Centre. В этом году фестиваль вновь состоялся в Мэдисон Сквер Гарден где проходил два дня подряд и стал очередным праздником блюза.



Продолжительность: 02:16:34 + 02:32:23
Качество видео: BDRip [720p]
Видео: MPEG-4/H.264 AVC; 1280х720; 4213 / 4649 Kbps;
Аудио: [ENG]: DTS 5.1; 1509.00 kbps; 48.0 KHz; 24-bits [BD]
Дополнительно: Сохранены оригинальные главы с Blu-Ray.
#777The Allman Brothers Band
Blake Mills
Booker T. Jones
Buddy Guy
Derek Trucks
Doyle Bramhall II
Eric Clapton
Gary Clark Jr.
Gregg Allman
Jeff Beck
John Mayer
Keith Richards
Keith Urban
Los Lobos
Robert Cray
Sonny Landreth
Vince Gill
Warren Haynes
Paul Carrack
Citizen Cope
Steve Cropper
Andy Fairweather Low
Beth Hart
B.B. King
Earl Klugh
Albert Lee
Taj Mahal
Keb' Mo'
Matt Murphy
Robert Randolph
Robbie Robertson
Kurt Rosenwinkel
Alice Smith
Quinn Sullivan
Jimmie Vaughan
Tal Wilkenfeld
Disc #1
Треклист:
01. Tears In Heaven
02. Spider Jiving
03. Lay Down Sally
04. Time Is Tight
05. Born Under A Bad Sign
06. Green Onions
07) Great Big Old House
08. Everyday I Have The Blues
09. Next Of Kindred Spirit
10. Cry
11. Bullet And A Target
12. She's Alright
13. This Time
14. Mirabella
15. Heavenly Bodies
16. Big Road Blues
17. Next Door Neighbor Blues
18. Queen of California
19. Don't Let Me Down
20. Damn Right, I've Got The Blues
21. Why Does Love Got To Be So Sad
22. Whipping Post

Disc #2
01. Congo Square
02. Change It
03. Ooh-Ooh-Ooh
04. Save The Last Dance For Me
05. I Got To Let You Know
06. Don't Worry Baby
07. The Needle and the Damage Done
08. Midnight Rider
09. I Ain't Living Long Like This
10. Tumbling Dice
11. Walkin' Blues
12. Diving Duck Blues
13. When My Train Pulls In
14. Please Come Home
15.) Going Down
16. Mn Na Hireann
17. Key To The Highway
18. Shall Be Released
19. Gin House Blues
20. Got To Get Better In A Little While
21. Crossroads
22. Sunshine Of Your Love
23. High Time We Went
Код:
Код:
General
Unique ID                                : 189183763353261544528064255944801378358 (0x8E5377ACFDD5E9D294D3BDD71BD7E036)
Complete name                            : D:\Eric.Clapton.Crossroads.Guitar.Festival.2013\1Disс.mkv
Format                                   : Matroska
Format version                           : Version 4 / Version 2
File size                                : 5.47 GiB
Duration                                 : 2h 16mn
Overall bit rate                         : 5 730 Kbps
Encoded date                             : UTC 2013-11-17 00:28:01
Writing application                      : mkvmerge v6.5.0 ('Isn't she lovely') built on Oct 20 2013 12:50:05
Writing library                          : libebml v1.3.0 + libmatroska v1.4.1

Video
ID                                       : 1
Format                                   : AVC
Format/Info                              : Advanced Video Codec
Format profile                           :
Format settings, CABAC                   : Yes
Format settings, ReFrames                : 5 frames
Codec ID                                 : V_MPEG4/ISO/AVC
Duration                                 : 2h 16mn
Bit rate                                 : 4 213 Kbps
Width                                    : 1 280 pixels
Height                                   : 720 pixels
Display aspect ratio                     : 16:9
Frame rate mode                          : Constant
Frame rate                               : 23.976 fps
Color space                              : YUV
Chroma subsampling                       : 4:2:0
Bit depth                                : 8 bits
Scan type                                : Progressive
Bits/(Pixel*Frame)                       : 0.191
Stream size                              : 3.92 GiB (72%)
Writing library                          : x264 core 138 r2358 9e941d1
Encoding settings                        : cabac=1 / ref=5 / deblock=1:0:0 / analyse=0x3:0x133 / me=umh / subme=8 / psy=1 / psy_rd=1.00:0.00 / mixed_ref=1 / me_range=16 / chroma_me=1 / trellis=1 / 8x8dct=1 / cqm=0 / deadzone=21,11 / fast_pskip=0 / chroma_qp_offset=-2 / threads=12 / lookahead_threads=2 / sliced_threads=0 / nr=0 / decimate=1 / interlaced=0 / bluray_compat=0 / constrained_intra=0 / bframes=3 / b_pyramid=2 / b_adapt=1 / b_bias=0 / direct=1 / weightb=1 / open_gop=0 / weightp=2 / keyint=250 / keyint_min=23 / scenecut=40 / intra_refresh=0 / rc_lookahead=40 / rc=2pass / mbtree=1 / bitrate=4213 / ratetol=1.0 / qcomp=0.60 / qpmin=0 / qpmax=69 / qpstep=4 / cplxblur=20.0 / qblur=0.5 / ip_ratio=1.40 / aq=1:1.00
Language                                 : English
Default                                  : Yes
Forced                                   : No

Audio
ID                                       : 2
Format                                   : DTS
Format/Info                              : Digital Theater Systems
Mode                                     : 16
Format settings, Endianness              : Big
Codec ID                                 : A_DTS
Duration                                 : 2h 16mn
Bit rate mode                            : Constant
Bit rate                                 : 1 509 Kbps
Channel count                            : 6 channels
Channel positions                        : Front: L C R, Side: L R, LFE
Sampling rate                            : 48.0 KHz
Bit depth                                : 24 bits
Compression mode                         : Lossy
Stream size                              : 1.44 GiB (26%)
Default                                  : Yes
Forced                                   : No

Menu
00:00:00.000                             : en:00:00:00.000
00:03:07.020                             : en:00:03:07.020
00:08:02.982                             : en:00:08:02.982
00:12:07.393                             : en:00:12:07.393
00:16:55.973                             : en:00:16:55.973
00:20:43.784                             : en:00:20:43.784
00:26:09.985                             : en:00:26:09.985
00:32:08.969                             : en:00:32:08.969
00:38:54.332                             : en:00:38:54.332
00:46:13.980                             : en:00:46:13.980
00:50:35.991                             : en:00:50:35.991
00:57:44.961                             : en:00:57:44.961
01:04:11.973                             : en:01:04:11.973
01:11:09.015                             : en:01:11:09.015
01:13:22.982                             : en:01:13:22.982
01:14:47.983                             : en:01:14:47.983
01:20:51.180                             : en:01:20:51.180
01:26:13.001                             : en:01:26:13.001
01:30:24.002                             : en:01:30:24.002
01:39:34.010                             : en:01:39:34.010
01:47:35.991                             : en:01:47:35.991
01:54:36.328                             : en:01:54:36.328
02:03:26.983                             : en:02:03:26.983
Код:
Код:
General
Unique ID                                : 240342631211891261251468948589120353569 (0xB4D04E99EFAAA4448D7B7325439C7521)
Complete name                            : D:\Eric.Clapton.Crossroads.Guitar.Festival.2013\2Disc.mkv
Format                                   : Matroska
Format version                           : Version 4 / Version 2
File size                                : 6.56 GiB
Duration                                 : 2h 32mn
Overall bit rate                         : 6 158 Kbps
Encoded date                             : UTC 2013-11-16 17:06:47
Writing application                      : mkvmerge v6.5.0 ('Isn't she lovely') built on Oct 20 2013 12:50:05
Writing library                          : libebml v1.3.0 + libmatroska v1.4.1

Video
ID                                       : 1
Format                                   : AVC
Format/Info                              : Advanced Video Codec
Format profile                           :
Format settings, CABAC                   : Yes
Format settings, ReFrames                : 5 frames
Codec ID                                 : V_MPEG4/ISO/AVC
Duration                                 : 2h 32mn
Bit rate                                 : 4 649 Kbps
Width                                    : 1 280 pixels
Height                                   : 720 pixels
Display aspect ratio                     : 16:9
Frame rate mode                          : Constant
Frame rate                               : 23.976 fps
Color space                              : YUV
Chroma subsampling                       : 4:2:0
Bit depth                                : 8 bits
Scan type                                : Progressive
Bits/(Pixel*Frame)                       : 0.210
Stream size                              : 4.82 GiB (74%)
Writing library                          : x264 core 138 r2358 9e941d1
Encoding settings                        : cabac=1 / ref=5 / deblock=1:0:0 / analyse=0x3:0x133 / me=umh / subme=8 / psy=1 / psy_rd=1.00:0.00 / mixed_ref=1 / me_range=16 / chroma_me=1 / trellis=1 / 8x8dct=1 / cqm=0 / deadzone=21,11 / fast_pskip=0 / chroma_qp_offset=-2 / threads=12 / lookahead_threads=2 / sliced_threads=0 / nr=0 / decimate=1 / interlaced=0 / bluray_compat=0 / constrained_intra=0 / bframes=3 / b_pyramid=2 / b_adapt=1 / b_bias=0 / direct=1 / weightb=1 / open_gop=0 / weightp=2 / keyint=250 / keyint_min=23 / scenecut=40 / intra_refresh=0 / rc_lookahead=40 / rc=2pass / mbtree=1 / bitrate=4649 / ratetol=1.0 / qcomp=0.60 / qpmin=0 / qpmax=69 / qpstep=4 / cplxblur=20.0 / qblur=0.5 / ip_ratio=1.40 / aq=1:1.00
Language                                 : English
Default                                  : Yes
Forced                                   : No

Audio
ID                                       : 2
Format                                   : DTS
Format/Info                              : Digital Theater Systems
Mode                                     : 16
Format settings, Endianness              : Big
Codec ID                                 : A_DTS
Duration                                 : 2h 32mn
Bit rate mode                            : Constant
Bit rate                                 : 1 509 Kbps
Channel count                            : 6 channels
Channel positions                        : Front: L C R, Side: L R, LFE
Sampling rate                            : 48.0 KHz
Bit depth                                : 24 bits
Compression mode                         : Lossy
Stream size                              : 1.61 GiB (25%)
Default                                  : Yes
Forced                                   : No

Menu
00:00:00.000                             : en:00:00:00.000
00:02:08.003                             : en:00:02:08.003
00:09:48.004                             : en:00:09:48.004
00:15:06.989                             : en:00:15:06.989
00:21:35.961                             : en:00:21:35.961
00:25:20.978                             : en:00:25:20.978
00:31:55.997                             : en:00:31:55.997
00:35:48.980                             : en:00:35:48.980
00:38:57.293                             : en:00:38:57.293
00:43:14.133                             : en:00:43:14.133
00:49:43.981                             : en:00:49:43.981
00:55:23.987                             : en:00:55:23.987
01:00:42.973                             : en:01:00:42.973
01:07:22.997                             : en:01:07:22.997
01:17:31.730                             : en:01:17:31.730
01:24:14.967                             : en:01:24:14.967
01:29:35.996                             : en:01:29:35.996
01:35:43.988                             : en:01:35:43.988
01:40:49.794                             : en:01:40:49.794
01:46:41.604                             : en:01:46:41.604
01:52:42.005                             : en:01:52:42.005
02:03:00.999                             : en:02:03:00.999
02:07:35.773                             : en:02:07:35.773
02:13:47.978                             : en:02:13:47.978
02:26:24.985                             : en:02:26:24.985
Скриншоты:
Disc #1:

Disc #2:
Правила, инструкции, FAQ!!!
Торрент  Добавлен [19 ноя 2013, 10:03] Скачать торрент Магнет ссылка
Скачать торрент
[ Размер 30.89 КБ / Просмотров 47 ]

Статус  
 
Размер  12.02 ГБ
Приватный: Нет (DHT включён)
.torrent скачан  4
Как залить торрент? | Как скачать Torrent? | Ошибка в торренте? Качайте магнет  


     Отправить личное сообщение
   
Страница 1 из 1
Показать сообщения за:  Поле сортировки  
Начать новую тему Ответить на тему

   Похожие торренты   Автор   Ответы   Просмотры   Последнее сообщение 
В этой теме нет новых непрочитанных сообщений. Скачать торрент Проверен (HDTV 720p) Eric Clapton Crossroads Guitar Festival Chicago [2007 г]

в форуме Концерты (HD-Video), Размер: 4.11 ГБ, Здоровье: 100%

Anonymous

0
54|14

239
7

01 май 2015, 20:00

Anonymous Перейти к последнему сообщению

В этой теме нет новых непрочитанных сообщений. Скачать торрент VA - Eric Clapton Crossroads Guitar Festival 2013 (2CD) (2013) [MP3|320 кб/с]<Blues, Rock>

в форуме Джаз, Блюз, Соул, Размер: 703.83 МБ, Здоровье: 100%

Anonymous

0
6|4

146
1

19 ноя 2013, 10:10

Anonymous Перейти к последнему сообщению

В этой теме нет новых непрочитанных сообщений. Скачать торрент Проверен Eric Clapton. Live at Crossroads Guitar Festival - Cocaine [HDTV, 1080i]

в форуме Концерты (HD-Video), Размер: 760.3 МБ, Здоровье: 100%

Anonymous

0
3|1

45
0

23 окт 2016, 13:48

Anonymous Перейти к последнему сообщению

В этой теме нет новых непрочитанных сообщений. Скачать торрент VA - Eric Clapton Guitar Festival Crossroads (2013) 2CD [FLAC|Lossless]<Blues, Blues Rock>

в форуме Джаз, Блюз, Соул, Размер: 1.04 ГБ, Здоровье: 73%

Anonymous

0
11|15

138
0

24 фев 2014, 13:11

Anonymous Перейти к последнему сообщению

В этой теме нет новых непрочитанных сообщений. Скачать торрент Проверен (Blues Rock, Electric Blues) [4LP] [24/96] VA - Eric Clapton Guitar Festival Crossroads (2013) - 2014, FLAC (tracks+.cue)

в форуме Зарубежный рок (оцифровки), Размер: 3.04 ГБ, Здоровье: 100%

Anonymous

0
7|4

60
1

25 авг 2016, 18:53

Anonymous Перейти к последнему сообщению



Сейчас этот форум просматривают: нет зарегистрированных пользователей и гости: 3


Вы не можете начинать темы
Вы не можете отвечать на сообщения
Вы не можете редактировать свои сообщения
Вы не можете удалять свои сообщения
Вы не можете добавлять вложения

Перейти:  
Ресурс не предоставляет электронные версии произведений, а занимается лишь коллекционированием и каталогизацией ссылок, присылаемых и публикуемых на форуме нашими читателями. Если вы являетесь правообладателем какого-либо представленного материала и не желаете чтобы ссылка на него находилась в нашем каталоге, свяжитесь с нами и мы незамедлительно удалим её. Файлы для обмена на трекере предоставлены пользователями сайта, и администрация не несёт ответственности за их содержание. Просьба не заливать файлы, защищенные авторскими правами, а также файлы нелегального содержания!
cron