На всех торрентах на трекере установлена скидка на скачивание в размере 100 процентов(а).
 Возможность скачивания торрента НЕ зависит от ограничений при низком ратио, низком аплоаде, требуемом ратио или требуемом аплоаде.


Начать новую тему Ответить на тему
Статистика раздачи
Размер: 1.46 ГБ | Добавлен: 11 июн 2018, 09:31 | Скачали: 0
Сидеров: 35  [0 байт/сек]    Личеров: 11  [0 байт/сек]
Пред. тема | След. тема 

Автор
Сообщение

СообщениеДобавлено: 11 июн 2018, 09:31 

Ответить с цитатой 

Эйфория / Euphoria
Страна: Швеция, Германия
Жанр: драма, приключения
Год выпуска: 2017
Продолжительность: 01:33:57
Перевод: Профессиональный (многоголосый закадровый) | iTunes
Субтитры: нет
Оригинальная аудиодорожка: нет
Режиссер:
Лиза Лангсет / Lisa Langseth
В ролях:
Алисия Викандер, Ева Грин, Шарлотта Рэмплинг, Адриан Лестер, Чарльз Дэнс, Марк Стэнли, Тайгер Кирххарц, Август Цирнер, Стеффен Юнг
Описание:
Эмили и Инес совершают путешествие по Европе, которое должно закончиться в «самом прекрасном месте на свете». Именно там Эмили хочет прожить свою «идеальную жизнь» и уйти навсегда из этого мира. Но, поставленная перед фактом, Инес совсем не готова безропотно принять это странное решение и хочет вырваться из этого «клуба самоубийц».
Качество видео: WEB-DLRip
Формат видео: AVI
Видео: 720x304 (2.37:1), 25 fps, XviD build 73 ~1831 kbps avg, 0.33 bit/pixel
Аудио: 48 kHz, AC3 Dolby Digital, 3/2 (L,C,R,l,r) + LFE ch, ~384 kbps
Сэмпл[/spoiler]
Код:
Код:
Код:
Format                      : AVI
Format/Info                 : Audio Video Interleave
File size                   : 1.46 GiB
Duration                    : 1 h 33 min
Overall bit rate            : 2 225 kb/s
Writing application         : VirtualDubMod 1.5.10.2 (build 2540/release)
Writing library             : VirtualDubMod build 2540/release
Video
ID                          : 0
Format                      : MPEG-4 Visual
Format profile              : Advanced Simple@L5
Format settings             : BVOP1 / Custom Matrix
Format settings, BVOP       : 1
Format settings, QPel       : No
Format settings, GMC        : No warppoints
Format settings, Matrix     : Custom
Codec ID                    : XVID
Codec ID/Hint               : XviD
Duration                    : 1 h 33 min
Bit rate                    : 1 832 kb/s
Width                       : 720 pixels
Height                      : 304 pixels
Display aspect ratio        : 2.35:1
Frame rate                  : 25.000 FPS
Color space                 : YUV
Chroma subsampling          : 4:2:0
Bit depth                   : 8 bits
Scan type                   : Progressive
Compression mode            : Lossy
Bits/(Pixel*Frame)          : 0.335
Stream size                 : 1.20 GiB (82%)
Writing library             : XviD 73
Audio
ID                          : 1
Format                      : AC-3
Format/Info                 : Audio Coding 3
Codec ID                    : 2000
Duration                    : 1 h 33 min
Bit rate mode               : Constant
Bit rate                    : 384 kb/s
Channel(s)                  : 6 channels
Channel positions           : Front: L C R, Side: L R, LFE
Sampling rate               : 48.0 kHz
Frame rate                  : 31.250 FPS (1536 SPF)
Bit depth                   : 16 bits
Compression mode            : Lossy
Stream size                 : 258 MiB (17%)
Alignment                   : Split accross interleaves
Interleave, duration        : 40  ms (1.00 video frame)
Interleave, preload duratio : 500  ms
Service kind                : Complete Main


Правила, инструкции, FAQ!!!
Торрент  Добавлен [11 июн 2018, 09:31] Скачать торрент Магнет ссылка
Скачать торрент
[ Размер 15.06 КБ / Просмотров 44 ]

Статус
Проверен 
 
Размер  1.46 ГБ
Приватный: Нет (DHT включён)
.torrent скачан  0
Как залить торрент? | Как скачать Torrent? | Ошибка в торренте? Качайте магнет  


     Отправить личное сообщение
   
Страница 1 из 1
Показать сообщения за:  Поле сортировки  
Начать новую тему Ответить на тему

   Похожие торренты   Автор   Ответы   Просмотры   Последнее сообщение 
В этой теме нет новых непрочитанных сообщений. Скачать торрент Проверен Эйфория / Euphoria (Лиза Лангсет / Lisa Langseth) [2017, Швеция, Германия, драма, приключения, WEB-DLRip-AVC] MVO

в форуме Фильмы 2016-2017, Размер: 1.43 ГБ, Здоровье: 100%

Anonymous

0
34|11

80
2

11 июн 2018, 09:31

Anonymous Перейти к последнему сообщению

В этой теме нет новых непрочитанных сообщений. Скачать торрент Проверен Борг/Макинрой / Borg McEnroe (Янус Мец / Janus Metz) [2017, Швеция, Драма, биография, спорт, WEB-DLRip] Dub (iTunes)

в форуме Фильмы 2016-2017, Размер: 1.41 ГБ, Здоровье: 0%

Anonymous

0
0|0

40
0

03 фев 2018, 21:08

Anonymous Перейти к последнему сообщению

В этой теме нет новых непрочитанных сообщений. Скачать торрент Проверен Борг / Макинрой / Borg McEnroe (Янус Мец / Janus Metz) [2017, Швеция, Драма, биография, спорт, WEB-DLRip] Dub (iTunes)

в форуме Фильмы 2016-2017, Размер: 748.26 МБ, Здоровье: 100%

Anonymous

0
2|1

41
0

03 фев 2018, 19:07

Anonymous Перейти к последнему сообщению

В этой теме нет новых непрочитанных сообщений. Скачать торрент Проверен Взрывная блондинка / Atomic Blonde (Дэвид Литч / David Leitch) [2017, Германия, Швеция, США, боевик, триллер, детектив, WEB-DLRip-AVC] Dub + Sub Rus

в форуме Фильмы 2016-2017, Размер: 745.83 МБ, Здоровье: 100%

Anonymous

0
1|0

27
0

03 фев 2018, 20:21

Anonymous Перейти к последнему сообщению

В этой теме нет новых непрочитанных сообщений. Скачать торрент Проверен Взрывная блондинка / Atomic Blonde (Дэвид Литч / David Leitch) [2017, Германия, Швеция, США, боевик, триллер, детектив, WEB-DLRip] Dub + Sub Rus

в форуме Фильмы 2016-2017, Размер: 743.15 МБ, Здоровье: 100%

Anonymous

0
34|11

17
0

03 фев 2018, 18:12

Anonymous Перейти к последнему сообщению



Сейчас этот форум просматривают: нет зарегистрированных пользователей и гости: 0


Вы не можете начинать темы
Вы не можете отвечать на сообщения
Вы не можете редактировать свои сообщения
Вы не можете удалять свои сообщения
Вы не можете добавлять вложения

Перейти:  
Ресурс не предоставляет электронные версии произведений, а занимается лишь коллекционированием и каталогизацией ссылок, присылаемых и публикуемых на форуме нашими читателями. Если вы являетесь правообладателем какого-либо представленного материала и не желаете чтобы ссылка на него находилась в нашем каталоге, свяжитесь с нами и мы незамедлительно удалим её. Файлы для обмена на трекере предоставлены пользователями сайта, и администрация не несёт ответственности за их содержание. Просьба не заливать файлы, защищенные авторскими правами, а также файлы нелегального содержания!
cron