На всех торрентах на трекере установлена скидка на скачивание в размере 100 процентов(а).
 Возможность скачивания торрента НЕ зависит от ограничений при низком ратио, низком аплоаде, требуемом ратио или требуемом аплоаде.


Начать новую тему Ответить на тему
Статистика раздачи
Размер: 550.44 МБ | Добавлен: 05 авг 2018, 09:26 | Скачали: 0
Сидеров: 2  [0 байт/сек]    Личеров: 0  [0 байт/сек]
Пред. тема | След. тема 

Автор
Сообщение

СообщениеДобавлено: 05 авг 2018, 09:26 

Ответить с цитатой 

Sixx A.M. / Коллекция (2 EP, 1 сингл)
Жанр: Hard Rock / Alternative
Носитель: CD
Год издания: 2008-2016
Страна исполнителя (группы): USA
Аудиокодек: FLAC (*.flac)
Тип рипа: tracks
Битрейт аудио: lossless
Продолжительность: 01:18:50
Источник (релизер): what.cd, apollo.rip
Наличие сканов в содержимом раздачи: да (Proof 2016)
#777Год издания: 2008
Продолжительность: 00:34:53
Источник (релизер): what.cd
01. X-Mas In Hell (Live)
02. Pray For Me (Live)
03. Heart Failure (Live)
04. Intermission (Live)
05. Dead Man's Ballet (Live)
06. Tomorrow (Live)
07. Accidents Can Happen (Live)
08. Life Is Beautiful (Live)
Код:
Exact Audio Copy V0.99 prebeta 5 from 4. May 2009
EAC extraction logfile from 21. March 2010, 16:29
Sixx: A.M. / Live Is Beautiful
Used drive  : HL-DT-STDVDRAM GSA-T40N   Adapter: 2  ID: 0
Read mode               : Secure
Utilize accurate stream : Yes
Defeat audio cache      : Yes
Make use of C2 pointers : No
Read offset correction                      : 667
Overread into Lead-In and Lead-Out          : No
Fill up missing offset samples with silence : Yes
Delete leading and trailing silent blocks   : No
Null samples used in CRC calculations       : Yes
Used interface                              : Native Win32 interface for Win NT & 2000
Gap handling                                : Appended to previous track
Used output format              : User Defined Encoder
Selected bitrate                : 320 kBit/s
Quality                         : High
Add ID3 tag                     : No
Command line compressor         : C:\Program Files (x86)\Exact Audio Copy\Flac\flac.exe
Additional command line options : -V -8 -T "artist=%a" -T "title=%t" -T "album=%g" -T "date=%y" -T "tracknumber=%n" -T "genre=%m" %s
TOC of the extracted CD
     Track |   Start  |  Length  | Start sector | End sector
    ---------------------------------------------------------
        1  |  0:00.00 |  2:03.39 |         0    |     9263
        2  |  2:03.39 |  4:39.48 |      9264    |    30236
        3  |  6:43.12 |  5:09.15 |     30237    |    53426
        4  | 11:52.27 |  1:51.35 |     53427    |    61786
        5  | 13:43.62 |  5:32.35 |     61787    |    86721
        6  | 19:16.22 |  5:08.72 |     86722    |   109893
        7  | 24:25.19 |  4:39.44 |    109894    |   130862
        8  | 29:04.63 |  5:48.18 |    130863    |   156980
Track  1
     Filename C:\My Shared Folder\life is beautiful\ 2008 - Live Is Beautiful\01 - X-Mas In Hell (Live).wav
     Pre-gap length  0:00:02.00
     Peak level 99.1 %
     Track quality 99.9 %
     Test CRC 408150A3
     Copy CRC 408150A3
     Accurately ripped (confidence 3)  [03930B7B]
     Copy OK
Track  2
     Filename C:\My Shared Folder\life is beautiful\ 2008 - Live Is Beautiful\02 - Pray For Me (Live).wav
     Peak level 100.0 %
     Track quality 100.0 %
     Test CRC 0028079E
     Copy CRC 0028079E
     Accurately ripped (confidence 3)  [1D5C65D8]
     Copy OK
Track  3
     Filename C:\My Shared Folder\life is beautiful\ 2008 - Live Is Beautiful\03 - Heart Failure (Live).wav
     Peak level 100.0 %
     Track quality 100.0 %
     Test CRC C1504E9D
     Copy CRC C1504E9D
     Accurately ripped (confidence 3)  [C1CC06F3]
     Copy OK
Track  4
     Filename C:\My Shared Folder\life is beautiful\ 2008 - Live Is Beautiful\04 - Intermission (Live).wav
     Peak level 100.0 %
     Track quality 100.0 %
     Test CRC 68ADC487
     Copy CRC 68ADC487
     Accurately ripped (confidence 3)  [B19515FF]
     Copy OK
Track  5
     Filename C:\My Shared Folder\life is beautiful\ 2008 - Live Is Beautiful\05 - Dead Man's Ballet (Live).wav
     Peak level 100.0 %
     Track quality 100.0 %
     Test CRC 7028A6DC
     Copy CRC 7028A6DC
     Accurately ripped (confidence 3)  [CFF74533]
     Copy OK
Track  6
     Filename C:\My Shared Folder\life is beautiful\ 2008 - Live Is Beautiful\06 - Tomorrow (Live).wav
     Peak level 100.0 %
     Track quality 100.0 %
     Test CRC C0CB6614
     Copy CRC C0CB6614
     Accurately ripped (confidence 3)  [EDFCC0D8]
     Copy OK
Track  7
     Filename C:\My Shared Folder\life is beautiful\ 2008 - Live Is Beautiful\07 - Accidents Can Happen (Live).wav
     Peak level 100.0 %
     Track quality 99.9 %
     Test CRC 5063D330
     Copy CRC 5063D330
     Accurately ripped (confidence 3)  [BC650276]
     Copy OK
Track  8
     Filename C:\My Shared Folder\life is beautiful\ 2008 - Live Is Beautiful\08 - Life Is Beautiful (Live).wav
     Peak level 100.0 %
     Track quality 100.0 %
     Test CRC FB826345
     Copy CRC FB826345
     Accurately ripped (confidence 3)  [C4D2F04F]
     Copy OK
All tracks accurately ripped
No errors occurred
End of status report
#777Год издания: 2011
Продолжительность: 00:29:44
Источник (релизер): Zak707 (apollo.rip)
01. Lies Of The Beautiful People (Acoustic)
02. This Is Gonna Hurt (Acoustic)
03. Life Is Beautiful (Acoustic)
04. Help Is On The Way (Acoustic)
05. Sure Feels Right (Acoustic)
06. Pray For Me (Acoustic)
07. Accidents Can Happen (Acoustic)
Код:
-----------------------
DON'T MODIFY THIS FILE
-----------------------
PERFORMER: auCDtect Task Manager, ver. 1.5.1RC6 build 1.5.1.7
Copyright (c) 2008-2010 y-soft. All rights reserved
[url=http://y-soft.org]http://y-soft.org[/url]
ANALYZER: auCDtect: CD records authenticity detector, version 0.8.2
Copyright (c) 2004 Oleg Berngardt. All rights reserved.
Copyright (c) 2004 Alexander Djourik. All rights reserved.
FILE: 07 Accidents Can Happen (Acoustic).flac
  Size: 28213099 Hash: 76C5AD2C0FC6E267556474C24094EA40 Accuracy: -m0
  Conclusion: CDDA 100%
  Signature: B94D235DA443A7B3C7D10BEA86E3D20907FA0179
FILE: 06 Pray For Me (Acoustic).flac
  Size: 33511503 Hash: 410FD5B2540051E8CB3EA15237028782 Accuracy: -m0
  Conclusion: CDDA 100%
  Signature: E33AE2E7CE1A159473FD6BF9020A29ECB3D43DB8
FILE: 05 Sure Feels Right (Acoustic).flac
  Size: 27409692 Hash: 807785491EFA412A707D52580DEF9CE0 Accuracy: -m0
  Conclusion: CDDA 100%
  Signature: EB52FEA3152C768190462BC7B44FB8F93A913B75
FILE: 04 Help Is On The Way (Acoustic).flac
  Size: 29012776 Hash: 74A7576332868531A6B31F51437D638C Accuracy: -m0
  Conclusion: CDDA 100%
  Signature: 1675A0B3621FC9687902E66F209518011774CEDE
FILE: 03 Life Is Beautiful (Acoustic).flac
  Size: 30635197 Hash: E6B160AFAF7F1F2298A76453B68EAAA1 Accuracy: -m0
  Conclusion: CDDA 100%
  Signature: 1EFEB7A970ACE90FE7786F04C505DE01C07AC6F6
FILE: 02 This Is Gonna Hurt (Acoustic).flac
  Size: 28801687 Hash: 116B0FF26E5183E44D1D12D96BAAB247 Accuracy: -m0
  Conclusion: CDDA 100%
  Signature: BE26DA9BF7E8452B0DD973E4F9BC192037E0FEFB
FILE: 01 Lies of the Beautiful People (Acoustic).flac
  Size: 30298345 Hash: A9F7054E2BBA84FC624901CA8407EC5B Accuracy: -m0
  Conclusion: CDDA 99%
  Signature: 25A3A5A33CFA1FAAC976137F1325320285F93D02
#777Год издания: 2016
Продолжительность: 00:14:18
Источник (релизер): what.cd
01 - Rise
02 - Life is Beautiful (Live)
03 - Lies of the Beautiful People (Live)
Код:
AUDIOCHECKER v2.0 beta (build 457) - by Dester - opdester@freemail.hu
~~~~~~~~~~~~~~~~~~~~~~~~~~~~~~~~~~
Started at: суббота, 04. 08. 2018. - 15:19.55
3 files found
1 -===- C:\Users\DELL\Downloads\Music\uploads_rutracker.org\Sixx A.M. - Коллекция [FLAC] [CD]\Sixx A.M. - 2016 - Rise - Single\01 - Rise.flac
  Extracted successfully
  Conclusion: this track is CDDA with probability 99%
  Tempfile successfully deleted.
2 -===- C:\Users\DELL\Downloads\Music\uploads_rutracker.org\Sixx A.M. - Коллекция [FLAC] [CD]\Sixx A.M. - 2016 - Rise - Single\02 - Life is Beautiful (Live).flac
  Extracted successfully
  Conclusion: this track is CDDA with probability 100%
  Tempfile successfully deleted.
3 -===- C:\Users\DELL\Downloads\Music\uploads_rutracker.org\Sixx A.M. - Коллекция [FLAC] [CD]\Sixx A.M. - 2016 - Rise - Single\03 - Lies of the Beautiful People (Live).flac
  Extracted successfully
  Conclusion: this track is CDDA with probability 100%
  Tempfile successfully deleted.
Finished at: суббота, 04. 08. 2018. - 15:21.56 (operation time: 0:02.00)
Правила, инструкции, FAQ!!!
Торрент  Добавлен [05 авг 2018, 09:26] Скачать торрент Магнет ссылка
Скачать торрент
[ Размер 13.65 КБ / Просмотров 46 ]

Статус
Проверен 
 
Размер  550.44 МБ
Приватный: Нет (DHT включён)
.torrent скачан  0
Как залить торрент? | Как скачать Torrent? | Ошибка в торренте? Качайте магнет  


     Отправить личное сообщение
   
Страница 1 из 1
Показать сообщения за:  Поле сортировки  
Начать новую тему Ответить на тему

   Похожие торренты   Автор   Ответы   Просмотры   Последнее сообщение 
В этой теме нет новых непрочитанных сообщений. Скачать торрент Проверен (Hard Rock / Alternative) [CD] Sixx: A.M. - Prayers For The Blessed (Vol.2) - 2016, FLAC (image+.cue), lossless

в форуме Classic Rock & Hard Rock, Размер: 340.8 МБ, Здоровье: 100%

Anonymous

0
162|54

130
10

12 дек 2016, 23:47

Anonymous Перейти к последнему сообщению

В этой теме нет новых непрочитанных сообщений. Скачать торрент Проверен (Hard Rock / Alternative) [CD] Sixx: A.M. - Prayers For The Damned (Vol.1) - 2016, FLAC (image+.cue), lossless

в форуме Classic Rock & Hard Rock, Размер: 370.69 МБ, Здоровье: 100%

Anonymous

0
67|16

72
4

05 сен 2016, 21:33

Anonymous Перейти к последнему сообщению

В этой теме нет новых непрочитанных сообщений. Скачать торрент Проверен (Acoustic / Alternative) [WEB] Sick Puppies - Коллекция (2 альбома, 1 ЕР, 1 сингл) - 2011-2016, FLAC (tracks), lossless

в форуме Alternative & Nu-metal, Размер: 786.48 МБ, Здоровье: 100%

Anonymous

0
1|0

46
1

25 фев 2017, 10:37

Anonymous Перейти к последнему сообщению

В этой теме нет новых непрочитанных сообщений. Скачать торрент Проверен (Hard Rock / Alternative) Sixx: A.M. - Prayers For The Damned (Vol.1) - 2016, MP3, 320 kbps

в форуме Рок, Панк, Метал, Альтернатива, Размер: 113.48 МБ, Здоровье: 100%

Anonymous

0
56|12

124
4

05 май 2016, 23:57

Anonymous Перейти к последнему сообщению

В этой теме нет новых непрочитанных сообщений. Скачать торрент Проверен (Hard Rock / Alternative) [WEB] Sixx:A.M. - Modern Vintage (Deluxe) - 2014, FLAC (tracks), lossless

в форуме Classic Rock & Hard Rock, Размер: 386.58 МБ, Здоровье: 100%

Anonymous

0
3|1

7
0

05 авг 2018, 09:26

Anonymous Перейти к последнему сообщению



Сейчас этот форум просматривают: нет зарегистрированных пользователей и гости: 4


Вы не можете начинать темы
Вы не можете отвечать на сообщения
Вы не можете редактировать свои сообщения
Вы не можете удалять свои сообщения
Вы не можете добавлять вложения

Перейти:  
Ресурс не предоставляет электронные версии произведений, а занимается лишь коллекционированием и каталогизацией ссылок, присылаемых и публикуемых на форуме нашими читателями. Если вы являетесь правообладателем какого-либо представленного материала и не желаете чтобы ссылка на него находилась в нашем каталоге, свяжитесь с нами и мы незамедлительно удалим её. Файлы для обмена на трекере предоставлены пользователями сайта, и администрация не несёт ответственности за их содержание. Просьба не заливать файлы, защищенные авторскими правами, а также файлы нелегального содержания!
cron