На всех торрентах на трекере установлена скидка на скачивание в размере 100 процентов(а).
 Возможность скачивания торрента НЕ зависит от ограничений при низком ратио, низком аплоаде, требуемом ратио или требуемом аплоаде.


Начать новую тему Ответить на тему
Статистика раздачи
Размер: 301.45 МБ | Добавлен: 05 авг 2018, 09:22 | Скачали: 0
Сидеров: 5  [0 байт/сек]    Личеров: 0  [0 байт/сек]
Пред. тема | След. тема 

Автор
Сообщение

СообщениеДобавлено: 05 авг 2018, 09:22 

Ответить с цитатой 

Lea Hart - Trapped
Жанр: Hard Rock
Носитель: CD
Страна-производитель диска: Япония
Год издания: 1990
Издатель (лейбл): C.O. MUSIC WORKS/H.I.T. AVENUE
Номер по каталогу: FHCG-1008
Страна исполнителя (группы): Англия
Аудиокодек: FLAC (*.flac)
Тип рипа: image+.cue
Битрейт аудио: lossless
Продолжительность: 42:44
Источник (релизер): Собственный рип
Наличие сканов в содержимом раздачи: да
Треклист:
1. Don't Rock The Boat (04:07)
2. What Do You Want From Me (04:37)
3. Trapped (04:44)
4. Danger Lines (03:57)
5. The Only One (04:46)
6. Nothing At All (03:59)
7. One Good Reason (04:41)
8. So Far Away (03:58)
9. Only Fools (03:54)
10. Don't Take These Dreams Away (03:57)
Код:
Exact Audio Copy V1.0 beta 3 from 29. August 2011
Отчёт EAC об извлечении, выполненном 5. января 2017, 13:52
Lea Hart / Trapped [FHCG-1008]
Дисковод: ASUS    DRW-2014S1   Adapter: 1  ID: 0
Режим чтения                 : Достоверность
Использование точного потока : Да
Отключение кэша аудио        : Да
Использование указателей C2  : Нет
Коррекция смещения при чтении                     : 6
Способность читать области Lead-in и Lead-out     : Нет
Заполнение пропущенных сэмплов тишиной            : Да
Удаление блоков с тишиной в начале и конце        : Нет
При вычислениях CRC использовались нулевые сэмплы : Да
Интерфейс                                         : Встроенный Win32-интерфейс для Win NT/2000
Выходной формат          : Пользовательский кодировщик
Выбранный битрейт        : 128 kBit/s
Качество                 : Высокий
Добавление ID3-тега      : Нет
Утилита сжатия           : C:\Program Files (x86)\Exact Audio Copy\Flac\flac.exe
Дополнительные параметры : -V -8 -T "Date=%year%" -T "Genre=%genre%" %source%
TOC извлечённого CD
     Трек |   Старт  | Длительность | Начальный сектор | Конечный сектор
    ---------------------------------------------------------------------
       1  |  0:00.00 |    4:07.30   |           0      |      18554
       2  |  4:07.30 |    4:37.17   |       18555      |      39346
       3  |  8:44.47 |    4:44.33   |       39347      |      60679
       4  | 13:29.05 |    3:57.27   |       60680      |      78481
       5  | 17:26.32 |    4:46.33   |       78482      |      99964
       6  | 22:12.65 |    3:59.72   |       99965      |     117961
       7  | 26:12.62 |    4:41.13   |      117962      |     139049
       8  | 30:54.00 |    3:58.10   |      139050      |     156909
       9  | 34:52.10 |    3:54.60   |      156910      |     174519
      10  | 38:46.70 |    3:57.55   |      174520      |     192349
Характеристики диапазона извлечения и сообщения об ошибках
Выбранный диапазон
     Имя файла Z:\Lea Hart\1990 Trapped\Lea Hart - Trapped [FHCG-1008].wav
     Пиковый уровень 90.6 %
     Скорость извлечения 7.2 X
     Качество диапазона 99.9 %
     CRC копии EBFA23A9
     Копирование... OK
Ошибок не произошло
AccurateRip: сводка
Трек  1  отсутствует в базе данных
Трек  2  отсутствует в базе данных
Трек  3  отсутствует в базе данных
Трек  4  отсутствует в базе данных
Трек  5  отсутствует в базе данных
Трек  6  отсутствует в базе данных
Трек  7  отсутствует в базе данных
Трек  8  отсутствует в базе данных
Трек  9  отсутствует в базе данных
Трек 10  отсутствует в базе данных
Ни одного трека нет в базе AccurateRip
Конец отчёта
==== Контрольная сумма отчёта 09ED4519820EB4C364B86D8B2DD40B78B5D30E84FB63289D9786F9730D7FB834 ====
Правила, инструкции, FAQ!!!
Торрент  Добавлен [05 авг 2018, 09:22] Скачать торрент Магнет ссылка
Скачать торрент
[ Размер 12.74 КБ / Просмотров 48 ]

Статус
Проверен 
 
Размер  301.45 МБ
Приватный: Нет (DHT включён)
.torrent скачан  0
Как залить торрент? | Как скачать Torrent? | Ошибка в торренте? Качайте магнет  


     Отправить личное сообщение
   
Страница 1 из 1
Показать сообщения за:  Поле сортировки  
Начать новую тему Ответить на тему

   Похожие торренты   Автор   Ответы   Просмотры   Последнее сообщение 
В этой теме нет новых непрочитанных сообщений. Скачать торрент Проверен (Hard Rock) [CD] Fastway - Bad Bad Girls [Japan, TECP-25197, 1990] - 1990, FLAC (image+.cue), lossless

в форуме Classic Rock & Hard Rock, Размер: 310.43 МБ, Здоровье: 100%

Anonymous

0
6|2

10
2

05 авг 2018, 09:22

Anonymous Перейти к последнему сообщению

В этой теме нет новых непрочитанных сообщений. Скачать торрент Проверен (Hard Rock) Lita Ford - Stiletto (Japan, BVCP-7, 1990) - 1990, FLAC (image+.cue), lossless

в форуме Classic Rock & Hard Rock, Размер: 335.7 МБ, Здоровье: 100%

Anonymous

0
2|0

16
0

03 сен 2016, 17:06

Anonymous Перейти к последнему сообщению

В этой теме нет новых непрочитанных сообщений. Скачать торрент Проверен (Hard Rock) Bad Company / Holy Water [Japan, AMCY-101, 1990] - 1990, FLAC (image+.cue), lossless

в форуме Classic Rock & Hard Rock, Размер: 351.3 МБ, Здоровье: 100%

Anonymous

0
13|1

18
2

04 сен 2016, 19:17

Anonymous Перейти к последнему сообщению

В этой теме нет новых непрочитанных сообщений. Скачать торрент Проверен (Hard Rock) Heart - Brigade (Japan, TOCP-6130, 1990) - 1990, FLAC (image+.cue), lossless

в форуме Classic Rock & Hard Rock, Размер: 460.67 МБ, Здоровье: 100%

Anonymous

0
2|0

31
0

05 сен 2016, 20:05

Anonymous Перейти к последнему сообщению

В этой теме нет новых непрочитанных сообщений. Скачать торрент Проверен (Hard Rock) [CD] Paul Laine - Stick It In Your Ear [Japan, WPCP-3525, 1990] - 1990, FLAC (image+.cue), lossless

в форуме Classic Rock & Hard Rock, Размер: 309.2 МБ, Здоровье: 100%

Anonymous

0
5|0

17
2

24 июл 2018, 09:31

Anonymous Перейти к последнему сообщению



Сейчас этот форум просматривают: нет зарегистрированных пользователей и гости: 1


Вы не можете начинать темы
Вы не можете отвечать на сообщения
Вы не можете редактировать свои сообщения
Вы не можете удалять свои сообщения
Вы не можете добавлять вложения

Перейти:  
Ресурс не предоставляет электронные версии произведений, а занимается лишь коллекционированием и каталогизацией ссылок, присылаемых и публикуемых на форуме нашими читателями. Если вы являетесь правообладателем какого-либо представленного материала и не желаете чтобы ссылка на него находилась в нашем каталоге, свяжитесь с нами и мы незамедлительно удалим её. Файлы для обмена на трекере предоставлены пользователями сайта, и администрация не несёт ответственности за их содержание. Просьба не заливать файлы, защищенные авторскими правами, а также файлы нелегального содержания!
cron