На всех торрентах на трекере установлена скидка на скачивание в размере 100 процентов(а).
 Возможность скачивания торрента НЕ зависит от ограничений при низком ратио, низком аплоаде, требуемом ратио или требуемом аплоаде.


Начать новую тему Ответить на тему
Статистика раздачи
Размер: 381.24 МБ | Добавлен: 05 авг 2018, 09:27 | Скачали: 3
Сидеров: 20  [0 байт/сек]    Личеров: 7  [0 байт/сек]
Пред. тема | След. тема 

Автор
Сообщение

СообщениеДобавлено: 05 авг 2018, 09:28 

Ответить с цитатой 


Panic Fire


Chrysalis




• Жанр: Hard Rock
• Носитель: CD
• Год издания: 2018
• Издатель (лейбл) Palisade Records
• Страна исполнителя (группы): USA
• Аудиокодек: FLAC (*.flac)
• Тип рипа: image+.cue
• Продолжительность: 00:52:12
• Источник (релизер): SergShicko ®
• Наличие сканов: нет

01. Decompose (00:04:42)
02. Call in Dead (00:03:48)
03. Kiloton Heart (00:04:49)
04. Love of Decay (00:06:42)
05. Throw You In The Volcano (00:05:45)
06. Panic Fire (00:03:45)
07. You And Me Against The World (00:03:07)
08. Magnets (00:05:05)
09. Nervous Energy, Pt. 1 (00:04:29)
10. Nervous Energy, Pt. 2 (00:03:10)
11. Transformation (00:01:06)
12. Chrysalis (00:05:38)

Код:
AUDIOCHECKER v2.0 beta (build 457) - by Dester - opdester@freemail.hu
~~~~~~~~~~~~~~~~~~~~~~~~~~~~~~~~~~
-=== DO NOT EDIT THIS FILE! ===-
Path: ...\Panic Fire - Chrysalis (2018)
1 -=- Panic Fire - Chrysalis.flac -=- CDDA (100%)
165548132

Код:
Exact Audio Copy V1.3 from 2. September 2016
EAC extraction logfile from 28. July 2018, 8:38
Panic Fire / Chrysalis
Used drive  : HL-DT-STDVDRAM GSA-H44N   Adapter: 1  ID: 1
Read mode               : Secure
Utilize accurate stream : Yes
Defeat audio cache      : Yes
Make use of C2 pointers : No
Read offset correction                      : 667
Overread into Lead-In and Lead-Out          : No
Fill up missing offset samples with silence : Yes
Delete leading and trailing silent blocks   : No
Null samples used in CRC calculations       : Yes
Used interface                              : Native Win32 interface for Win NT & 2000
Used output format              : User Defined Encoder
Selected bitrate                : 768 kBit/s
Quality                         : High
Add ID3 tag                     : No
Command line compressor         : C:\Program Files (x86)\Exact Audio Copy\Flac\flac.exe
Additional command line options : V -4 -T "Date=%year%" -T "Genre=%genre%" %source%
TOC of the extracted CD
     Track |   Start  |  Length  | Start sector | End sector
    ---------------------------------------------------------
        1  |  0:00.00 |  4:42.73 |         0    |    21222
        2  |  4:42.73 |  3:48.48 |     21223    |    38370
        3  |  8:31.46 |  4:49.49 |     38371    |    60094
        4  | 13:21.20 |  6:42.52 |     60095    |    90296
        5  | 20:03.72 |  5:45.57 |     90297    |   116228
        6  | 25:49.54 |  3:45.50 |    116229    |   133153
        7  | 29:35.29 |  3:07.02 |    133154    |   147180
        8  | 32:42.31 |  5:05.19 |    147181    |   170074
        9  | 37:47.50 |  4:29.58 |    170075    |   190307
       10  | 42:17.33 |  3:10.07 |    190308    |   204564
       11  | 45:27.40 |  1:06.28 |    204565    |   209542
       12  | 46:33.68 |  5:38.62 |    209543    |   234954
Range status and errors
Selected range
     Filename G:\Рабочая\Blues music\Panic Fire - Chrysalis (2018)\Panic Fire - Chrysalis.wav
     Peak level 99.9 %
     Extraction speed 6.8 X
     Range quality 99.9 %
     Copy CRC EEB59799
     Copy OK
No errors occurred
End of status report

Код:
REM GENRE "Hard Rock"
REM DATE 2018
REM DISCID B30C3C0C
REM COMMENT "ExactAudioCopy v1.3"
PERFORMER "Panic Fire"
TITLE "Chrysalis"
REM COMPOSER ""
FILE "Panic Fire - Chrysalis.flac" WAVE
  TRACK 01 AUDIO
    TITLE "Decompose"
    PERFORMER "Panic Fire"
    REM COMPOSER ""
    INDEX 01 00:00:00
  TRACK 02 AUDIO
    TITLE "Call in Dead"
    PERFORMER "Panic Fire"
    REM COMPOSER ""
    INDEX 01 04:42:73
  TRACK 03 AUDIO
    TITLE "Kiloton Heart"
    PERFORMER "Panic Fire"
    REM COMPOSER ""
    INDEX 01 08:31:46
  TRACK 04 AUDIO
    TITLE "Love of Decay"
    PERFORMER "Panic Fire"
    REM COMPOSER ""
    INDEX 01 13:21:20
  TRACK 05 AUDIO
    TITLE "Throw You In The Volcano"
    PERFORMER "Panic Fire"
    REM COMPOSER ""
    INDEX 01 20:03:72
  TRACK 06 AUDIO
    TITLE "Panic Fire"
    PERFORMER "Panic Fire"
    REM COMPOSER ""
    INDEX 01 25:49:54
  TRACK 07 AUDIO
    TITLE "You And Me Against The World"
    PERFORMER "Panic Fire"
    REM COMPOSER ""
    INDEX 01 29:35:29
  TRACK 08 AUDIO
    TITLE "Magnets"
    PERFORMER "Panic Fire"
    REM COMPOSER ""
    INDEX 01 32:42:31
  TRACK 09 AUDIO
    TITLE "Nervous Energy, Pt. 1"
    PERFORMER "Panic Fire"
    REM COMPOSER ""
    INDEX 01 37:47:50
  TRACK 10 AUDIO
    TITLE "Nervous Energy, Pt. 2"
    PERFORMER "Panic Fire"
    REM COMPOSER ""
    INDEX 01 42:17:33
  TRACK 11 AUDIO
    TITLE "Transformation"
    PERFORMER "Panic Fire"
    REM COMPOSER ""
    INDEX 01 45:27:40
  TRACK 12 AUDIO
    TITLE "Chrysalis"
    PERFORMER "Panic Fire"
    REM COMPOSER ""
    INDEX 01 46:33:68

Код:
-----------------------
DON'T MODIFY THIS FILE
-----------------------
PERFORMER: auCDtect Task Manager, ver. 1.6.0 RC1 build 1.6.0.1
Copyright (c) 2008-2010 y-soft. All rights reserved
[url=http://y-soft.org]http://y-soft.org[/url]
ANALYZER: auCDtect: CD records authenticity detector, version 0.8.2
Copyright (c) 2004 Oleg Berngardt. All rights reserved.
Copyright (c) 2004 Alexander Djourik. All rights reserved.
FILE: Panic Fire - Chrysalis.flac
  Size: 399344762 Hash: C51071BCFCF4C0148E937A6A69F3B765 Accuracy: -m0
  Conclusion: CDDA 100%
  Signature: B98F6FD986DF8037A5A4B55FAC1D82A5A6C1C668



PANIC FIRE is the next evolution of Gary Schutt Music. Gary has been a solo artist for over 20 years. His vast cataog of original music spans from pop to progressive metal to melodic rock. His 12 solo albums have gained critical acclaim from various international webzines.
One day on a long drive home from a gig (August 2017), Gary brainstormed about many things. A rebranding was one of them. Having already written and recorded most of a new album, he decided to give himself a band name and start from scratch. All of the band names he thought of were cool, but taken in some way. Then he decided to try the way of a song title, like most tribute bands do. PANIC FIRE was a song from the Excruciating Pleasures CD from 2002. The dot com for Panic Fire was available and so was the ReverbNation. He scooped up the domains right away.
Before the completion of the Chrysalis album (2018), Gary decided to release a “preliminary” album of Schutt greatest hits. That way his live band could continue to play the older material live, and they would have two CDs to sell! That album is called EVOLVE (2017). PANIC FIRE now combines the best of the Gary Schutt Band original live show and the former Category Three cover band, and will continue to play all over the Tampa Bay area... and beyond!
Joining Gary on this new musical venture are the super talented Tracy Ferrell on bass and Dan Martin on drums. These guys have been the backbone of all of Gary's band projects for over five years, including the Diary of an OZZman (Ozzy Osbourne tribute show band).
Panic Fire, as a cover band, is one of the tightest musically and uniquely diverse bands playing the Tampa Bay scene! The song list is mostly built around songs that no other bands cover - for better or for worse - they definitely stand out from the rest! They also take classic songs and pop song and make them our own, nothing is just like the record!

Правила, инструкции, FAQ!!!
Торрент  Добавлен [05 авг 2018, 09:27] Скачать торрент Магнет ссылка
Скачать торрент
[ Размер 15.54 КБ / Просмотров 26 ]

Статус
Проверен 
 
Размер  381.24 МБ
Приватный: Нет (DHT включён)
.torrent скачан  3
Как залить торрент? | Как скачать Torrent? | Ошибка в торренте? Качайте магнет  


     Отправить личное сообщение
   
Страница 1 из 1
Показать сообщения за:  Поле сортировки  
Начать новую тему Ответить на тему

   Похожие торренты   Автор   Ответы   Просмотры   Последнее сообщение 
В этой теме нет новых непрочитанных сообщений. Скачать торрент Проверен (Hard Rock) Panic Fire - Chrysalis - 2018, MP3, 320 kbps

в форуме Classic Rock & Hard Rock, Размер: 122.16 МБ, Здоровье: 100%

Anonymous

0
94|12

53
4

16 июн 2018, 10:25

Anonymous Перейти к последнему сообщению

В этой теме нет новых непрочитанных сообщений. Скачать торрент Проверен (Hard Rock, Heavy Metal) The Michael Schenker Group - The Chrysalis Years 1980-1984 (5CD Box Set) - 2012 (EMI Records/Chrysalis Records 50999 9 55615 2 3 EU), FLAC (image+.cue), lossless

в форуме Classic Rock & Hard Rock, Размер: 2.47 ГБ, Здоровье: 100%

Anonymous

0
7|3

65
0

03 сен 2016, 17:25

Anonymous Перейти к последнему сообщению

В этой теме нет новых непрочитанных сообщений. Скачать торрент Проверен (Nu Metal | hard rock) Panic Cell - Fire It Up - 2010, MP3 (tracks), 128 kbps

в форуме Alternative & Nu-metal, Размер: 43.41 МБ, Здоровье: 0%

Anonymous

0
0|0

1
0

28 июл 2018, 11:40

Anonymous Перейти к последнему сообщению

В этой теме нет новых непрочитанных сообщений. Скачать торрент Проверен (Eclectic Progressive) Man On Fire - Chrysalis [Bonus Tracks], [Digipak] - 2011, FLAC (image+.cue), lossless

в форуме Progressive & Art-Rock, Размер: 426.78 МБ, Здоровье: 0%

Anonymous

0
0|0

9
0

30 авг 2016, 17:30

Anonymous Перейти к последнему сообщению

В этой теме нет новых непрочитанных сообщений. Скачать торрент Проверен (Hard Rock) Fire Sets Fire - Fire Sets Fire - 2018, MP3, 320 kbps

в форуме Classic Rock & Hard Rock, Размер: 100.38 МБ, Здоровье: 100%

Anonymous

0
23|6

40
6

05 май 2018, 12:44

Anonymous Перейти к последнему сообщению



Сейчас этот форум просматривают: нет зарегистрированных пользователей и гости: 0


Вы не можете начинать темы
Вы не можете отвечать на сообщения
Вы не можете редактировать свои сообщения
Вы не можете удалять свои сообщения
Вы не можете добавлять вложения

Перейти:  
Ресурс не предоставляет электронные версии произведений, а занимается лишь коллекционированием и каталогизацией ссылок, присылаемых и публикуемых на форуме нашими читателями. Если вы являетесь правообладателем какого-либо представленного материала и не желаете чтобы ссылка на него находилась в нашем каталоге, свяжитесь с нами и мы незамедлительно удалим её. Файлы для обмена на трекере предоставлены пользователями сайта, и администрация не несёт ответственности за их содержание. Просьба не заливать файлы, защищенные авторскими правами, а также файлы нелегального содержания!
cron