На всех торрентах на трекере установлена скидка на скачивание в размере 100 процентов(а).
 Возможность скачивания торрента НЕ зависит от ограничений при низком ратио, низком аплоаде, требуемом ратио или требуемом аплоаде.


Начать новую тему Ответить на тему
Статистика раздачи
Размер: 293.04 МБ | Добавлен: 05 авг 2018, 09:23 | Скачали: 0
Сидеров: 1  [0 байт/сек]    Личеров: 0  [0 байт/сек]
Пред. тема | След. тема 

Автор
Сообщение

СообщениеДобавлено: 05 авг 2018, 09:23 

Ответить с цитатой 

Twisted Sister - Under The Blade
Жанр: Hard Rock
Носитель: CD
Страна-производитель диска: Япония
Год издания: 1985
Издатель (лейбл): SECRET/VIRGIN
Номер по каталогу: SECXCD9
Страна исполнителя (группы): США
Аудиокодек: FLAC (*.flac)
Тип рипа: image+.cue
Битрейт аудио: lossless
Продолжительность: 45:18
Источник (релизер): Собственный рип
Наличие сканов в содержимом раздачи: да
Треклист:
1. What You Don't Know (04:46)
2. Bad Boys (Of Rock n' Roll) (03:21)
3. Run For Your Life (03:29)
4. Sin After Sin (03:23)
5. Shoot 'Em Down (03:55)
6. Destroyer (04:09)
7. Under the Blade (04:39)
8. Tear it Loose (03:10)
9. Day of the Rocker (04:52)
10. What You Don't Know (05:35)
11. Leader Of The Pack (The Shangri-Las cover) (03:59)
Код:
Exact Audio Copy V1.0 beta 3 from 29. August 2011
Отчёт EAC об извлечении, выполненном 17. июля 2013, 14:45
Twisted Sister / Under The Blade [SECXCD9]
Дисковод: TSSTcorpCDDVDW SH-224BB   Adapter: 0  ID: 2
Режим чтения                 : Достоверность
Использование точного потока : Да
Отключение кэша аудио        : Да
Использование указателей C2  : Нет
Коррекция смещения при чтении                     : 6
Способность читать области Lead-in и Lead-out     : Нет
Заполнение пропущенных сэмплов тишиной            : Да
Удаление блоков с тишиной в начале и конце        : Нет
При вычислениях CRC использовались нулевые сэмплы : Да
Интерфейс                                         : Встроенный Win32-интерфейс для Win NT/2000
Выходной формат          : Пользовательский кодировщик
Выбранный битрейт        : 128 kBit/s
Качество                 : Высокий
Добавление ID3-тега      : Нет
Утилита сжатия           : C:\Program Files\Exact Audio Copy\Flac\flac.exe
Дополнительные параметры : -V -8 -T "Date=%year%" -T "Genre=%genre%" %source%
TOC извлечённого CD
     Трек |   Старт  | Длительность | Начальный сектор | Конечный сектор
    ---------------------------------------------------------------------
       1  |  0:00.00 |    4:46.00   |           0      |      21449
       2  |  4:46.00 |    3:21.35   |       21450      |      36559
       3  |  8:07.35 |    3:29.10   |       36560      |      52244
       4  | 11:36.45 |    3:22.62   |       52245      |      67456
       5  | 14:59.32 |    3:55.20   |       67457      |      85101
       6  | 18:54.52 |    4:09.15   |       85102      |     103791
       7  | 23:03.67 |    4:38.55   |      103792      |     124696
       8  | 27:42.47 |    3:10.05   |      124697      |     138951
       9  | 30:52.52 |    4:52.05   |      138952      |     160856
      10  | 35:44.57 |    5:34.38   |      160857      |     185944
      11  | 41:19.20 |    3:58.47   |      185945      |     203841
Характеристики диапазона извлечения и сообщения об ошибках
Выбранный диапазон
     Имя файла D:\Music\Twisted Sister\1982 Under The Blade\Twisted Sister - Under The Blade [SECXCD9].wav
     Пиковый уровень 100.0 %
     Скорость извлечения 4.4 X
     Качество диапазона 100.0 %
     CRC копии 169102D5
     Копирование... OK
Ошибок не произошло
AccurateRip: сводка
Трек  1  : извлечено точно (доверие 2)  [D50A49BE]  (AR v1)
Трек  2  : извлечено точно (доверие 2)  [F38FFD6F]  (AR v1)
Трек  3  : извлечено точно (доверие 2)  [9D3CF595]  (AR v1)
Трек  4  : извлечено точно (доверие 2)  [AE1FC78C]  (AR v1)
Трек  5  : извлечено точно (доверие 2)  [23287254]  (AR v1)
Трек  6  : извлечено точно (доверие 2)  [8B57D766]  (AR v1)
Трек  7  : извлечено точно (доверие 2)  [612D5027]  (AR v1)
Трек  8  : извлечено точно (доверие 2)  [309A4FFB]  (AR v1)
Трек  9  : извлечено точно (доверие 2)  [64EB20B3]  (AR v1)
Трек 10  : извлечено точно (доверие 2)  [22044D65]  (AR v1)
Трек 11  : извлечено точно (доверие 2)  [DDCF42F8]  (AR v1)
Все треки извлечены точно
Конец отчёта
==== Контрольная сумма отчёта 639551E2F9B3728AFE39D671A88F4109C962D9AE5B002A6E1DAD7863119B2A15 ====
Правила, инструкции, FAQ!!!
Торрент  Добавлен [05 авг 2018, 09:23] Скачать торрент Магнет ссылка
Скачать торрент
[ Размер 12.3 КБ / Просмотров 39 ]

Статус
Проверен 
 
Размер  293.04 МБ
Приватный: Нет (DHT включён)
.torrent скачан  0
Как залить торрент? | Как скачать Torrent? | Ошибка в торренте? Качайте магнет  


     Отправить личное сообщение
   
Страница 1 из 1
Показать сообщения за:  Поле сортировки  
Начать новую тему Ответить на тему

   Похожие торренты   Автор   Ответы   Просмотры   Последнее сообщение 
В этой теме нет новых непрочитанных сообщений. Скачать торрент Проверен (Hard Rock) Twisted Sister - Under The Blade (1982) (SHM-CD Japan +5 Re-issue) - 2011, FLAC (image+.cue), lossless

в форуме Classic Rock & Hard Rock, Размер: 423.83 МБ, Здоровье: 100%

Anonymous

0
9|2

37
1

03 сен 2016, 23:54

Anonymous Перейти к последнему сообщению

В этой теме нет новых непрочитанных сообщений. Скачать торрент Проверен (Hard/Glam/Heavy) Twisted Sister - Under The Blade (Japan 18P2-2745) - 1982 (press 1989), FLAC (image+.cue), lossless

в форуме Classic Rock & Hard Rock, Размер: 282.54 МБ, Здоровье: 100%

Anonymous

0
12|2

70
3

04 сен 2016, 22:25

Anonymous Перейти к последнему сообщению

В этой теме нет новых непрочитанных сообщений. Скачать торрент Проверен (Hard Rock & Heavy Metal) Twisted Sister - Under The Blade (Special Edition), 1982/2011, FLAC (tracks+.cue), lossless

в форуме Classic Rock & Hard Rock, Размер: 414.8 МБ, Здоровье: 100%

Anonymous

0
5|5

49
0

03 сен 2016, 23:30

Anonymous Перейти к последнему сообщению

В этой теме нет новых непрочитанных сообщений. Скачать торрент Проверен (Hard Rock) Twisted Sister / Come Out And Play [Japan, 32XD-391, 1986] - 1985, FLAC (image+.cue), lossless

в форуме Classic Rock & Hard Rock, Размер: 285.15 МБ, Здоровье: 100%

Anonymous

0
33|2

46
2

04 сен 2016, 22:25

Anonymous Перейти к последнему сообщению

В этой теме нет новых непрочитанных сообщений. Скачать торрент Обновлён Twisted Sister - The Best Of Twisted Sister 1982-1990 (2005) [MP3|320 kbps]<Hard Rock / Heavy Metal>

в форуме Рок, Панк, Метал, Альтернатива, Размер: 181.78 МБ, Здоровье: 100%

Гость

0
5|2

362
1

29 июл 2014, 21:52

Гость Перейти к последнему сообщению



Сейчас этот форум просматривают: нет зарегистрированных пользователей и гости: 0


Вы не можете начинать темы
Вы не можете отвечать на сообщения
Вы не можете редактировать свои сообщения
Вы не можете удалять свои сообщения
Вы не можете добавлять вложения

Перейти:  
Ресурс не предоставляет электронные версии произведений, а занимается лишь коллекционированием и каталогизацией ссылок, присылаемых и публикуемых на форуме нашими читателями. Если вы являетесь правообладателем какого-либо представленного материала и не желаете чтобы ссылка на него находилась в нашем каталоге, свяжитесь с нами и мы незамедлительно удалим её. Файлы для обмена на трекере предоставлены пользователями сайта, и администрация не несёт ответственности за их содержание. Просьба не заливать файлы, защищенные авторскими правами, а также файлы нелегального содержания!
cron