На всех торрентах на трекере установлена скидка на скачивание в размере 100 процентов(а).
 Возможность скачивания торрента НЕ зависит от ограничений при низком ратио, низком аплоаде, требуемом ратио или требуемом аплоаде.


Начать новую тему Ответить на тему
Статистика раздачи
Размер: 7.28 ГБ | Добавлен: 03 янв 2015, 22:13 | Скачали: 0
Сидеров: 1  [0 байт/сек]    Личеров: 1  [0 байт/сек]
Пред. тема | След. тема 

Автор
Сообщение

СообщениеДобавлено: 03 янв 2015, 22:13 

Ответить с цитатой 

Производство: Индия, UTV
Жанр: Триллер, Драма, Криминал
Перевод: Двуголосый закадровый, любительский
Озвучка / Автор перевода: DeadSno & den904 / Honey & Haseena
Субтитры: Вшитые отключаемые
Язык субтитров: Английский

Дата мировой премьеры: 2 октября 2014

Режиссер: Вишал Бхарадвадж
Продюсер: Вишал Бхарадвадж, Сиддхартх Рой Капур, Рекха Бхардвадж
Актеры: Табу, Шахид Капур, Шраддха Капур, Кей Кей Менон, Нарендра Джха, Кулбхушан Харбанда, Лалит Паримоо, Ашиш Видьятхи, Амир Башир

Описание фильма:
Индийская адаптация трагедии Уильяма Шекспира «Гамлет». Нетипичный индийский фильм. Почему? Всего 3 песни и 1 танец за почти 3 часа. Причем все они к месту, не слащавые, а довольно жесткие. Есть любовная сцена. Такие «откровенные» сцены в Индии не поощряются. Фильм достаточно жестокий, много насилия, но не наигранного, как мы привыкли это видеть в индийских фильмах. Серьезный драматичекий фильм, а не мюзикл, мелодрама или комедия. Мрачный: черно-бело-серые тона и алый цвет. Фильм снят в Кашмире.

Семпл

Продолжительность: 02:41:21
Качество видео: BDRip [H.264/720p-LQ]

Видеокодек: MPEG-4 AVC/H.264
Битрейт видео: ~4169 kb/s
Размер кадра: 1280х544

Аудио#1: DTS, 1510 kb/s, 6ch - русский
Аудио#2: AC3, 640 kb/s 6 ch - русский
Код:
Код:
Общее
Уникальный идентификатор                 : 180464729045250984351734269319509586579 (0x87C43E183DDADFDAA2B41B24C1F23293)
Полное имя                               : D:\FILMЬl\NNM\Haider.2014.BDRip.720p.mkv
Формат                                   : Matroska
Версия формата                           : Version 4 / Version 2
Размер файла                             : 7,28 Гбайт
Продолжительность                        : 2 ч. 41 м.
Общий поток                              : 6460 Кбит/сек
Название фильма                          :
Дата кодирования                         : UTC 2015-01-03 13:31:09
Программа кодирования                    : mkvmerge v6.7.0 ('Back to the Ground') 32bit built on Jan  8 2014 15:03:17
Библиотека кодирования                   : libebml v1.3.0 + libmatroska v1.4.1

Видео
Идентификатор                            : 1
Формат                                   : AVC
Формат/Информация                        : Advanced Video Codec
Профиль формата                          :
Параметр CABAC формата                   : Да
Параметр ReFrames формата                : 12 кадров
Идентификатор кодека                     : V_MPEG4/ISO/AVC
Продолжительность                        : 2 ч. 41 м.
Битрейт                                  : 4181 Кбит/сек
Ширина                                   : 1280 пикселей
Высота                                   : 544 пикселя
Соотношение сторон                       : 2,35:1
Режим частоты кадров                     : Постоянный
Частота кадров                           : 23,976 кадра/сек
Цветовое пространство                    : YUV
Субдискретизация насыщенности            : 4:2:0
Битовая глубина                          : 8 бит
Тип развёртки                            : Прогрессивная
Бит/(Пиксели*Кадры)                      : 0.250
Размер потока                            : 4,71 Гбайт (65%)
Заголовок                                :
Библиотека кодирования                   : x264 core 142 r2491 24e4fed
Настройки программы                      : cabac=1 / ref=12 / deblock=1:-3:-3 / analyse=0x3:0x133 / me=umh / subme=10 / psy=1 / psy_rd=1.00:0.00 / mixed_ref=1 / me_range=48 / chroma_me=1 / trellis=2 / 8x8dct=1 / cqm=0 / deadzone=21,11 / fast_pskip=1 / chroma_qp_offset=-2 / threads=6 / lookahead_threads=1 / sliced_threads=0 / nr=0 / decimate=1 / interlaced=0 / bluray_compat=0 / constrained_intra=0 / bframes=9 / b_pyramid=2 / b_adapt=2 / b_bias=0 / direct=3 / weightb=1 / open_gop=0 / weightp=2 / keyint=250 / keyint_min=23 / scenecut=40 / intra_refresh=0 / rc_lookahead=150 / rc=crf / mbtree=0 / crf=15.5 / qcomp=0.75 / qpmin=0 / qpmax=69 / qpstep=4 / vbv_maxrate=50000 / vbv_bufsize=62500 / crf_max=0.0 / nal_hrd=none / filler=0 / ip_ratio=1.30 / pb_ratio=1.20 / aq=1:0.75 / zones=112538,113512,crf=13
Язык                                     : English
Default                                  : Да
Forced                                   : Нет

Аудио #1
Идентификатор                            : 2
Формат                                   : DTS
Формат/Информация                        : Digital Theater Systems
Режим                                    : 16
Параметр Endianness формата              : Big
Идентификатор кодека                     : A_DTS
Продолжительность                        : 2 ч. 41 м.
Вид битрейта                             : Постоянный
Битрейт                                  : 1510 Кбит/сек
Каналы                                   : 6 каналов
Расположение каналов                     : Front: L C R, Side: L R, LFE
Частота                                  : 48,0 КГц
Битовая глубина                          : 24 бит
Метод сжатия                             : С потерями
Размер потока                            : 1,70 Гбайт (23%)
Заголовок                                :
Язык                                     : Russian
Default                                  : Да
Forced                                   : Да

Аудио #2
Идентификатор                            : 3
Формат                                   : AC-3
Формат/Информация                        : Audio Coding 3
Расширение режима                        : CM (complete main)
Параметр Endianness формата              : Big
Идентификатор кодека                     : A_AC3
Продолжительность                        : 2 ч. 41 м.
Вид битрейта                             : Постоянный
Битрейт                                  : 640 Кбит/сек
Каналы                                   : 6 каналов
Расположение каналов                     : Front: L C R, Side: L R, LFE
Частота                                  : 48,0 КГц
Битовая глубина                          : 16 бит
Метод сжатия                             : С потерями
Размер потока                            : 739 Мбайт (10%)
Заголовок                                :
Язык                                     : Russian
Default                                  : Нет
Forced                                   : Нет

Текст
Идентификатор                            : 4
Формат                                   : UTF-8
Идентификатор кодека                     : S_TEXT/UTF8
Идентификатор кодека/Информация          : UTF-8 Plain Text
Язык                                     : English
Default                                  : Нет
Forced                                   : Нет
Скриншоты:
Правила, инструкции, FAQ!!!
Торрент  Добавлен [03 янв 2015, 22:13] Скачать торрент Магнет ссылка
Скачать торрент
[ Размер 18.98 КБ / Просмотров 25 ]

Статус
Проверен 
 
Размер  7.28 ГБ
Приватный: Нет (DHT включён)
.torrent скачан  0
Как залить торрент? | Как скачать Torrent? | Ошибка в торренте? Качайте магнет  


     Отправить личное сообщение
   
Страница 1 из 1
Показать сообщения за:  Поле сортировки  
Начать новую тему Ответить на тему

   Похожие торренты   Автор   Ответы   Просмотры   Последнее сообщение 
В этой теме нет новых непрочитанных сообщений. Скачать торрент Проверен Хайдер / Haider (2014) HDRip

в форуме Индийское кино, Размер: 1.46 ГБ, Здоровье: 100%

Гость

0
12|3

304
1

03 янв 2015, 22:07

Гость Перейти к последнему сообщению

В этой теме нет новых непрочитанных сообщений. Скачать торрент Проверен (Progressive Jazz) [LP] [16/44.1]Joe Haider Trio - Cafe Des Pyrennees - 1973, FLAC (tracks), lossless

в форуме Джаз и блюз (оцифровки), Размер: 238.17 МБ, Здоровье: 0%

Anonymous

0
0|0

2
0

28 окт 2018, 09:37

Anonymous Перейти к последнему сообщению

В этой теме нет новых непрочитанных сообщений. Скачать торрент Проверен Ты не ты / You're Not You (2014) BDRip 720p | P

в форуме 720p | 1080p, Размер: 4.51 ГБ, Здоровье: 100%

Гость

0
132|81

300
256

17 апр 2015, 16:29

Гость Перейти к последнему сообщению

В этой теме нет новых непрочитанных сообщений. Скачать торрент Проверен 71 / '71 (2014) BDRip 720p | Матвеев

в форуме 720p | 1080p, Размер: 9.35 ГБ, Здоровье: 100%

Гость

0
26|2

226
10

07 дек 2015, 18:40

Гость Перейти к последнему сообщению

В этой теме нет новых непрочитанных сообщений. Скачать торрент Проверен А вот и она / And So It Goes (2014) BDRip 720p | D | Лицензия

в форуме 720p | 1080p, Размер: 3.16 ГБ, Здоровье: 100%

Гость

0
1|0

324
0

31 авг 2014, 23:56

Гость Перейти к последнему сообщению



Сейчас этот форум просматривают: нет зарегистрированных пользователей и гости: 0


Вы не можете начинать темы
Вы не можете отвечать на сообщения
Вы не можете редактировать свои сообщения
Вы не можете удалять свои сообщения
Вы не можете добавлять вложения

Перейти:  
Ресурс не предоставляет электронные версии произведений, а занимается лишь коллекционированием и каталогизацией ссылок, присылаемых и публикуемых на форуме нашими читателями. Если вы являетесь правообладателем какого-либо представленного материала и не желаете чтобы ссылка на него находилась в нашем каталоге, свяжитесь с нами и мы незамедлительно удалим её. Файлы для обмена на трекере предоставлены пользователями сайта, и администрация не несёт ответственности за их содержание. Просьба не заливать файлы, защищенные авторскими правами, а также файлы нелегального содержания!
cron