На всех торрентах на трекере установлена скидка на скачивание в размере 100 процентов(а).
 Возможность скачивания торрента НЕ зависит от ограничений при низком ратио, низком аплоаде, требуемом ратио или требуемом аплоаде.


Начать новую тему Ответить на тему
Статистика раздачи
Размер: 1.46 ГБ | Добавлен: 03 янв 2015, 22:07 | Скачали: 1
Сидеров: 12  [0 байт/сек]    Личеров: 3  [0 байт/сек]
Пред. тема | След. тема 

Автор
Сообщение

СообщениеДобавлено: 03 янв 2015, 22:07 

Ответить с цитатой 

Год выпуска: 2014
Производство: Индия
Жанр: Триллер, драма, мелодрама, криминал

Режиссер: Вишал Бхарадвадж
Актеры: Табу, Шахид Капур, Шраддха Капур, Кей Кей Менон, Нарендра Джха, Кулбхушан Харбанда, Лалит Паримоо, Ашиш Видьятхи, Амир Башир

Описание фильма:
Современная адаптация шекспировской трагедии «Гамлет». Хайдер возвращается из учёбы в родной город. Там он узнаёт о заточении своего отца в плен боевиками Индийской Армии. Разгадывая местонахождение отца, он понимает, что в этом деле замешаны местные власти и члены его семьи. Не получив правды мирным путём, он берёт в руки оружие и решает вывести всех на чистую воду…

Перевод: Любительский двухголосый [den904&DeadSno]
Язык субтитров: Русский
Вид субтитров: Вшитые



Продолжительность: 02:41:21
Качество видео: HDRip

Видеокодек: XviD
Битрейт видео: ~1158 Кбит/с
Размер кадра: 672x288
Аудиокодек: MP3 2 ch
Битрейт аудио: 128 Кбит/с

Общее
Полное имя : C:\NNM\Хайдер\Haider 2014 HDRip.avi
Формат : AVI
Формат/Информация : Audio Video Interleave
Размер файла : 1,46 Гбайт
Продолжительность : 2 ч. 41 м.
Общий поток : 1295 Кбит/сек
Программа кодирования : VirtualDubMod 1.5.10.3
Библиотека кодирования : VirtualDubMod build 2550/release

Видео
Идентификатор : 0
Формат : MPEG-4 Visual
Профиль формата : Advanced Simple@L5
Параметр BVOP формата : 2
Параметр QPel формата : Нет
Параметр GMC формата : Без точки перехода
Параметр матрицы формата : Default (MPEG)
Идентификатор кодека : XVID
Идентификатор кодека/Подсказка : XviD
Продолжительность : 2 ч. 41 м.
Битрейт : 1158 Кбит/сек
Ширина : 672 пикселя
Высота : 288 пикселей
Соотношение сторон : 2,35:1
Частота кадров : 23,976 кадра/сек
Цветовое пространство : YUV
Субдискретизация насыщенности : 4:2:0
Битовая глубина : 8 бит
Тип развёртки : Прогрессивная
Метод сжатия : С потерями
Бит/(Пиксели*Кадры) : 0.249
Размер потока : 1,30 Гбайт (89%)
Библиотека кодирования : XviD 1.2.1 (UTC 2008-12-04)

Аудио
Идентификатор : 1
Формат : MPEG Audio
Версия формата : Version 1
Профиль формата : Layer 3
Режим : Joint stereo
Идентификатор кодека : 55
Идентификатор кодека/Подсказка : MP3
Продолжительность : 2 ч. 41 м.
Вид битрейта : Постоянный
Битрейт : 128 Кбит/сек
Каналы : 2 канала
Частота : 48,0 КГц
Метод сжатия : С потерями
Размер потока : 148 Мбайт (10%)
Выравнивание : Соединение по промежуткам
Продолжительность промежутка : 42 мс. (1,00 видеокадр)
Время предзагрузки промежутка : 504 мс.
Библиотека кодирования : LAME3.90.3
Скриншоты:
[center]
Правила, инструкции, FAQ!!!
Торрент  Добавлен [03 янв 2015, 22:07] Скачать торрент Магнет ссылка
Скачать торрент
[ Размер 15.25 КБ / Просмотров 32 ]

Статус
Проверен 
 
Размер  1.46 ГБ
Приватный: Нет (DHT включён)
.torrent скачан  1
Как залить торрент? | Как скачать Torrent? | Ошибка в торренте? Качайте магнет  


     Отправить личное сообщение
   
Страница 1 из 1
Показать сообщения за:  Поле сортировки  
Начать новую тему Ответить на тему

   Похожие торренты   Автор   Ответы   Просмотры   Последнее сообщение 
В этой теме нет новых непрочитанных сообщений. Скачать торрент Проверен Хайдер / Haider (2014) BDRip [720p] [VO]

в форуме Индийское кино, Размер: 7.28 ГБ, Здоровье: 100%

Гость

0
1|1

333
0

03 янв 2015, 22:13

Гость Перейти к последнему сообщению

В этой теме нет новых непрочитанных сообщений. Скачать торрент Проверен (Progressive Jazz) [LP] [16/44.1]Joe Haider Trio - Cafe Des Pyrennees - 1973, FLAC (tracks), lossless

в форуме Джаз и блюз (оцифровки), Размер: 238.17 МБ, Здоровье: 0%

Anonymous

0
0|0

2
0

28 окт 2018, 09:37

Anonymous Перейти к последнему сообщению

В этой теме нет новых непрочитанных сообщений. Скачать торрент Проверен (Rock/Blues) Amir Haider - Leave These Blues - 2016, MP3, 320 kbps

в форуме Classic Rock & Hard Rock, Размер: 84.44 МБ, Здоровье: 0%

Anonymous

0
0|0

11
0

13 ноя 2016, 15:02

Anonymous Перейти к последнему сообщению

В этой теме нет новых непрочитанных сообщений. Скачать торрент Проверен Kubana 2014 (Кубана 2014) Официальный фильм [2015, Punk, Rock, Alternative, Rap, Ska, Trance, Retro,HDRip]

в форуме Концерты (HD-Video), Размер: 4.37 ГБ, Здоровье: 100%

Anonymous

0
34|8

97
2

23 окт 2016, 14:03

Anonymous Перейти к последнему сообщению

В этой теме нет новых непрочитанных сообщений. Скачать торрент Проверен Эпидемия - Сокровище Энии / Stadium Live 26.04.2014 (+Чистый звук) [2014, Power Metal, MultiCam, HDRip 720p]

в форуме Концерты (HD-Video), Размер: 4.35 ГБ, Здоровье: 100%

Anonymous

0
23|7

164
5

23 окт 2016, 16:18

Anonymous Перейти к последнему сообщению



Сейчас этот форум просматривают: нет зарегистрированных пользователей и гости: 0


Вы не можете начинать темы
Вы не можете отвечать на сообщения
Вы не можете редактировать свои сообщения
Вы не можете удалять свои сообщения
Вы не можете добавлять вложения

Перейти:  
Ресурс не предоставляет электронные версии произведений, а занимается лишь коллекционированием и каталогизацией ссылок, присылаемых и публикуемых на форуме нашими читателями. Если вы являетесь правообладателем какого-либо представленного материала и не желаете чтобы ссылка на него находилась в нашем каталоге, свяжитесь с нами и мы незамедлительно удалим её. Файлы для обмена на трекере предоставлены пользователями сайта, и администрация не несёт ответственности за их содержание. Просьба не заливать файлы, защищенные авторскими правами, а также файлы нелегального содержания!
cron