На всех торрентах на трекере установлена скидка на скачивание в размере 100 процентов(а).
 Возможность скачивания торрента НЕ зависит от ограничений при низком ратио, низком аплоаде, требуемом ратио или требуемом аплоаде.


Начать новую тему Ответить на тему
Статистика раздачи
Размер: 4.51 ГБ | Добавлен: 14 мар 2013, 23:26 | Скачали: 2
Сидеров: 6  [0 байт/сек]    Личеров: 19  [0 байт/сек]
Пред. тема | След. тема 

Автор
Сообщение

СообщениеДобавлено: 14 мар 2013, 23:26 

Ответить с цитатой 

Русское название: Иисус Христос - суперзвезда
Оригинальное название: Jesus Christ Superstar Live Arena Tour
Год выпуска: 2012
Жанр: Мюзикл, рок-опера
Выпущено: Великобритания, Really Useful Films, Universal Pictures, Arena Tour (Arena rock)

Описание фильма:
Запись живого исполнения cовременной версии классической рок-оперы Эндрю Ллойда Уэббера, адаптированной специально для исполнения на больших площадках (Арена-рок). Роль Иуды исполнил австралийский актер Тим Минчин, неоднократный лауреат престижных американских и британских премий в жанре музыкальной комедии. Мелани Си, наиболее известная как участница "Спайс Герлз" - самой успешной женской группы в музыкальной истории Великобритании, сыграла Марию Магдалину. Популярный ведущий английского утреннего шоу Крис Мойлз выступил в роли царя Ирода, а победитель конкурса телеканала ITV "Суперзвезда" Бен Фостер исполнил роль Иисуса. После премьеры, прошедшей перед 12-тысячной аудиторией на стадионе в Манчестере, сэр Эндрю признался, что всегда мечтал увидеть постановку именно в таком виде, подчеркнув, что она изначально не планировалась для исполнения на театральных подмостках, а бродвейская версия вообще напоминает ему травести-шоу.

Режиссер: Лоуренс Коннор
Актеры: Тим Минчин, Мелани Си, Бен Форстер, Крис Мойлз

Продолжительность: 01:44:01
Перевод: Отсутствует
Язык: Английский
Релиз от: drony2005
Язык субтитров: Русский и Английский
Вид субтитров: Вшитые (SRT)



Дата мировой премьеры: 2012
Общее
Уникальный идентификатор : 181044349380794096801113982145537970992 (0x8833DF9567259E1CA5532C49856B1330)
Полное имя : Jesus.Christ.Superstar_Live.Arena.Tour.2012.BDRip.1080p.drony.mkv
Формат : Matroska
Версия формата : Version 4 / Version 2
Размер файла : 4,51 Гбайт
Продолжительность : 1 ч. 44 м.
Режим общего битрейта : Переменный
Общий поток : 6204 Кбит/сек
Дата кодирования : UTC 2013-03-14 16:09:12
Программа кодирования : mkvmerge v6.1.0 ('Old Devil') built on Mar 2 2013 14:32:37
Библиотека кодирования : libebml v1.3.0 + libmatroska v1.4.0

Видео
Идентификатор : 1
Формат : AVC
Формат/Информация : Advanced Video Codec
Профиль формата :
Параметр CABAC формата : Да
Параметр ReFrames формата : 3 кадра
Режим смешивания : Container profile=Unknown@0.0
Идентификатор кодека : V_MPEG4/ISO/AVC
Продолжительность : 1 ч. 44 м.
Вид битрейта : Переменный
Битрейт : 4500 Кбит/сек
Максимальный битрейт : 40,0 Мбит/сек
Ширина : 1920 пикселей
Высота : 1080 пикселей
Соотношение сторон : 16:9
Частота кадров : 25,000 кадров/сек
Цветовое пространство : YUV
Субдискретизация насыщенности : 4:2:0
Битовая глубина : 8 бит
Тип развёртки : Прогрессивная
Бит/(Пиксели*Кадры) : 0.087
Размер потока : 3,18 Гбайт (71%)
Заголовок : drony
Библиотека кодирования : x264 core 130 r2273 b3065e6

Default : Нет
Forced : Нет
Основные цвета : BT.709-5, BT.1361, IEC 61966-2-4, SMPTE RP177
Характеристики трансфера : BT.709-5, BT.1361
Коэффициенты матрицы : BT.709-5, BT.1361, IEC 61966-2-4 709, SMPTE RP177

Аудио #1
Идентификатор : 2
Формат : DTS
Формат/Информация : Digital Theater Systems
Идентификатор кодека : A_DTS
Продолжительность : 1 ч. 44 м.
Вид битрейта : Постоянный
Битрейт : 1510 Кбит/сек
Каналы : 6 каналов
Расположение каналов : Front: L C R, Side: L R, LFE
Частота : 48,0 КГц
Битовая глубина : 24 бит
Метод сжатия : С потерями
Размер потока : 1,10 Гбайт (24%)
Заголовок : DTS, 6 ch, 1510 kbps, 48 kHz, 24 bits
Язык : English
Default : Да
Forced : Нет

Аудио #2
Идентификатор : 3
Формат : AC-3
Формат/Информация : Audio Coding 3
Расширение режима : CM (complete main)
Параметр Endianness формата : Big
Идентификатор кодека : A_AC3
Продолжительность : 1 ч. 44 м.
Вид битрейта : Постоянный
Битрейт : 192 Кбит/сек
Каналы : 2 канала
Расположение каналов : Front: L R
Частота : 48,0 КГц
Битовая глубина : 16 бит
Метод сжатия : С потерями
Размер потока : 143 Мбайт (3%)
Заголовок : AC3, 2 ch, 192 kbps, 48 kHz
Язык : English
Default : Нет
Forced : Нет

Текст #1
Идентификатор : 4
Формат : UTF-8
Идентификатор кодека : S_TEXT/UTF8
Идентификатор кодека/Информация : UTF-8 Plain Text
Заголовок : Russian
Язык : Russian
Default : Да
Forced : Нет

Текст #2
Идентификатор : 5
Формат : UTF-8
Идентификатор кодека : S_TEXT/UTF8
Идентификатор кодека/Информация : UTF-8 Plain Text
Заголовок : English
Язык : English
Default : Нет
Forced : Нет

Меню
00:00:00.000 : en:00:00:00.000
00:04:59.200 : en:00:04:59.200
00:09:30.840 : en:00:09:30.840
00:12:03.680 : en:00:12:03.680
00:13:44.480 : en:00:13:44.480
00:18:04.800 : en:00:18:04.800
00:21:45.280 : en:00:21:45.280
00:24:43.720 : en:00:24:43.720
00:28:06.600 : en:00:28:06.600
00:30:09.120 : en:00:30:09.120
00:31:47.960 : en:00:31:47.960
00:37:03.920 : en:00:37:03.920
00:37:38.840 : en:00:37:38.840
00:41:29.040 : en:00:41:29.040
00:47:26.200 : en:00:47:26.200
00:54:46.560 : en:00:54:46.560
01:01:26.800 : en:01:01:26.800
01:04:22.000 : en:01:04:22.000
01:05:49.360 : en:01:05:49.360
01:08:33.960 : en:01:08:33.960
01:12:42.840 : en:01:12:42.840
01:15:27.640 : en:01:15:27.640
01:20:56.640 : en:01:20:56.640
01:27:22.800 : en:01:27:22.800
01:31:58.960 : en:01:31:58.960
01:33:54.960 : en:01:33:54.960
01:36:54.840 : en:01:36:54.840
Рип сделал с блюрея. Оставил оригинальные две звуковые дорожки, русские и английские субтитры и чаптеры для удобного перемещения по главам. Приятного просмотра!
Видеокодек: MPEG-4 AVC/H.264
Битрейт видео: ~4500 kbps
Размер кадра: 1920x1080, 16:9, 25 fps
Качество видео: BDRip
Аудиокодек: DTS, AC3
Аудио #1: DTS, 6 ch, 1510 kbps, 48 kHz, 24 bits
Аудио #2: AC3, 2 ch, 192 kbps, 48 kHz, 16 bits

Сохранены оригинальные чаптеры с Blu Ray

Скриншоты:
Правила, инструкции, FAQ!!!
Торрент  Добавлен [14 мар 2013, 23:26] Скачать торрент Магнет ссылка
Скачать торрент
[ Размер 23.38 КБ / Просмотров 68 ]

Статус  
 
Размер  4.51 ГБ
Приватный: Нет (DHT включён)
.torrent скачан  2
Как залить торрент? | Как скачать Torrent? | Ошибка в торренте? Качайте магнет  


     Отправить личное сообщение
   
Страница 1 из 1
Показать сообщения за:  Поле сортировки  
Начать новую тему Ответить на тему

   Похожие торренты   Автор   Ответы   Просмотры   Последнее сообщение 
В этой теме нет новых непрочитанных сообщений. Скачать торрент Проверен Иисус Христос - Суперзвезда/Jesus Christ Superstar (исполнение на русском) (Норман Джюисон / Norman Jewison) [1973, Rock Opera, HDTVRip]

в форуме Концерты (HD-Video), Размер: 2.32 ГБ, Здоровье: 100%

Anonymous

0
34|12

147
3

23 окт 2016, 14:34

Anonymous Перейти к последнему сообщению

В этой теме нет новых непрочитанных сообщений. Скачать торрент Проверен (Classic Rock) [2LP] [24/192] Andrew Lloyd Webber & Tim Rice - Jesus Christ Superstar / Иисус Христос Суперзвезда (1970) - 1991, FLAC (image+.cue)

в форуме Зарубежный рок (оцифровки), Размер: 3.33 ГБ, Здоровье: 100%

Anonymous

0
38|12

155
9

27 авг 2016, 10:19

Anonymous Перейти к последнему сообщению

В этой теме нет новых непрочитанных сообщений. Скачать торрент Проверен Иисус Христос Суперзвезда / Jesus Christ Superstar (Норман Джуисон/Norman Jewison) (с участием Яна Гиллана) [1973, Rock, HDTVRip 720p]

в форуме Концерты (HD-Video), Размер: 2.96 ГБ, Здоровье: 100%

Гость

0
70|19

269
32

26 апр 2015, 22:13

Гость Перейти к последнему сообщению

В этой теме нет новых непрочитанных сообщений. Скачать торрент Проверен Иисус Христос - Суперзвезда/Jesus Christ Superstar (исполнение на русском)(Норман Джюисон / Norman Jewison) [1973, Rock Opera, HDTVRip 1080i]

в форуме Концерты (HD-Video), Размер: 4.77 ГБ, Здоровье: 100%

Anonymous

0
39|4

99
4

23 окт 2016, 14:52

Anonymous Перейти к последнему сообщению

В этой теме нет новых непрочитанных сообщений. Скачать торрент Проверен Иисус Христос - Суперзвезда/Jesus Christ Superstar (Норман Джюисон / Norman Jewison) (озвучка: театр им.Моссовета) [1973, Rock opera, HDTVRip 1080i]

в форуме Концерты (HD-Video), Размер: 4.24 ГБ, Здоровье: 100%

Anonymous

0
7|4

106
2

23 окт 2016, 13:37

Anonymous Перейти к последнему сообщению



Сейчас этот форум просматривают: нет зарегистрированных пользователей и гости: 0


Вы не можете начинать темы
Вы не можете отвечать на сообщения
Вы не можете редактировать свои сообщения
Вы не можете удалять свои сообщения
Вы не можете добавлять вложения

Перейти:  
Ресурс не предоставляет электронные версии произведений, а занимается лишь коллекционированием и каталогизацией ссылок, присылаемых и публикуемых на форуме нашими читателями. Если вы являетесь правообладателем какого-либо представленного материала и не желаете чтобы ссылка на него находилась в нашем каталоге, свяжитесь с нами и мы незамедлительно удалим её. Файлы для обмена на трекере предоставлены пользователями сайта, и администрация не несёт ответственности за их содержание. Просьба не заливать файлы, защищенные авторскими правами, а также файлы нелегального содержания!
cron