На всех торрентах на трекере установлена скидка на скачивание в размере 100 процентов(а).
 Возможность скачивания торрента НЕ зависит от ограничений при низком ратио, низком аплоаде, требуемом ратио или требуемом аплоаде.


Начать новую тему Ответить на тему
Статистика раздачи
Размер: 146.41 МБ | Добавлен: 06 янв 2017, 21:33 | Скачали: 1
Сидеров: 2  [0 байт/сек]    Личеров: 0  [0 байт/сек]
Пред. тема | След. тема 

Автор
Сообщение

СообщениеДобавлено: 06 янв 2017, 21:33 

Ответить с цитатой 

Amy Shreve - Peace In The Puzzle

[img=right]http://ipicture.ru/[/img]

Жанр: Instrumental (Арфа)
Год выпуска диска: 2002
Производитель диска: Wix Records (USA - Nashville)
Аудио кодек: FLAC
Тип рипа: image+.cue
Битрейт аудио: lossless
Трэклист:
01. Invocation [03:45.49]
02. Northen Lights [03:34.08]
03. Crystal Night [04:37.29]
04. Apogee [04:09.03]
05. Hymn VII [02:05.15]
06. Diamons From Dust [03:19.67]
07. Silent Partner [02:30.65]
08. Peace In The Puzzle [02:28.53]
09. Carol For Russia's Children [03:21.16]
10. Jester's Lament [04:09.00]
11. Twilight Pavan [03:13.68]
Доп. информация:
Код:
Exact Audio Copy V0.99 prebeta 5 from 4. May 2009

Отчёт EAC об извлечении, выполненном 5. октября 2009, 15:39

Amy Shreve / Peace In The Puzzle

Дисковод: PLEXTOR DVDR   PX-708A   Adapter: 3  ID: 0

Режим чтения                 : Достоверность
Использование точного потока : Да
Отключение кэша аудио        : Да
Использование указателей C2  : Нет

Коррекция смещения при чтении                     : 30
Способность читать области Lead-in и Lead-out     : Нет
Заполнение пропущенных сэмплов тишиной            : Да
Удаление блоков с тишиной в начале и конце        : Нет
При вычислениях CRC использовались нулевые сэмплы : Да
Интерфейс                                         : Установленный внешний ASPI-интерфейс

Выходной формат : Внутренние WAV-операции
Формат сэмплов  : 44.100 Гц; 16 бит; стерео

TOC извлечённого CD

     Трек |   Старт  | Длительность | Начальный сектор | Конечный сектор
    ---------------------------------------------------------------------
       1  |  0:00.00 |    3:45.49   |           0      |      16923
       2  |  3:45.49 |    3:34.08   |       16924      |      32981
       3  |  7:19.57 |    4:37.29   |       32982      |      53785
       4  | 11:57.11 |    4:09.03   |       53786      |      72463
       5  | 16:06.14 |    2:05.15   |       72464      |      81853
       6  | 18:11.29 |    3:19.67   |       81854      |      96845
       7  | 21:31.21 |    2:30.65   |       96846      |     108160
       8  | 24:02.11 |    2:28.53   |      108161      |     119313
       9  | 26:30.64 |    3:21.16   |      119314      |     134404
      10  | 29:52.05 |    4:09.00   |      134405      |     153079
      11  | 34:01.05 |    3:13.68   |      153080      |     167622

Характеристики диапазона извлечения и сообщения об ошибках

Выбранный диапазон

     Имя файла C:\темр CD\Amy Shreve - Peace In The Puzzle.wav

     Пиковый уровень 79.9 %
     Качество диапазона 100.0 %
     CRC копии 13C05F0F
     Копирование... OK

Ошибок не произошло

AccurateRip: сводка

Трек  1  нет в базе данных
Трек  2  нет в базе данных
Трек  3  нет в базе данных
Трек  4  нет в базе данных
Трек  5  нет в базе данных
Трек  6  нет в базе данных
Трек  7  нет в базе данных
Трек  8  нет в базе данных
Трек  9  нет в базе данных
Трек 10  нет в базе данных
Трек 11  нет в базе данных

Ни одного трека нет в базе AccurateRip

Конец отчёта
.
Очень проникновенная и вдумчивая арфа в исполнении Amy Shreve, весь диск слушается на одном дыхании, не смотря что звучит просто соло (без аранжировок).
Материал достаточно редкий и в таком качестве практически недоступный ни в сети ни впродаже
Правила, инструкции, FAQ!!!
Торрент  Добавлен [06 янв 2017, 21:33] Скачать торрент Магнет ссылка
Скачать торрент
[ Размер 12.32 КБ / Просмотров 84 ]

Статус
Проверен 
 
Размер  146.41 МБ
Приватный: Нет (DHT включён)
.torrent скачан  1
Как залить торрент? | Как скачать Torrent? | Ошибка в торренте? Качайте магнет  


     Отправить личное сообщение
   
Страница 1 из 1
Показать сообщения за:  Поле сортировки  
Начать новую тему Ответить на тему

   Похожие торренты   Автор   Ответы   Просмотры   Последнее сообщение 
В этой теме нет новых непрочитанных сообщений. Скачать торрент Проверен (Instrumental) Amy Shreve - Whisper, FLAC (image+.cue), lossless

в форуме Instrumental/New Age/Meditative/Relax, Размер: 244.51 МБ, Здоровье: 0%

Anonymous

0
0|0

3
0

06 янв 2017, 21:33

Anonymous Перейти к последнему сообщению

В этой теме нет новых непрочитанных сообщений. Скачать торрент Проверен (Instrumental) Amy Shreve - Pray - 2004, FLAC (image+.cue), lossless

в форуме Instrumental/New Age/Meditative/Relax, Размер: 207.66 МБ, Здоровье: 0%

Anonymous

0
0|0

3
0

06 янв 2017, 13:50

Anonymous Перейти к последнему сообщению

В этой теме нет новых непрочитанных сообщений. Скачать торрент Проверен (Instrumental) Amy Shreve - Winter Come Gently - 2007, FLAC (image+.cue), lossless

в форуме Instrumental/New Age/Meditative/Relax, Размер: 186.89 МБ, Здоровье: 0%

Anonymous

0
0|0

3
0

06 янв 2017, 21:33

Anonymous Перейти к последнему сообщению

В этой теме нет новых непрочитанных сообщений. Скачать торрент Проверен (new age, fusion, jazz) [CD] VA - Инструментальная коллекция - Арфа - 2002, FLAC (tracks+.cue), lossless

в форуме Instrumental/New Age/Meditative/Relax, Размер: 368.34 МБ, Здоровье: 38%

Anonymous

0
7|18

57
2

27 май 2018, 20:19

Anonymous Перейти к последнему сообщению

В этой теме нет новых непрочитанных сообщений. Скачать торрент Проверен (Hard Rock, Psychedelic Rock) Puzzle - Puzzle (1969), FLAC (tracks+.cue), lossless

в форуме Classic Rock & Hard Rock, Размер: 282.74 МБ, Здоровье: 100%

Anonymous

0
48|4

54
3

03 сен 2016, 12:44

Anonymous Перейти к последнему сообщению



Сейчас этот форум просматривают: нет зарегистрированных пользователей и гости: 1


Вы не можете начинать темы
Вы не можете отвечать на сообщения
Вы не можете редактировать свои сообщения
Вы не можете удалять свои сообщения
Вы не можете добавлять вложения

Перейти:  
Ресурс не предоставляет электронные версии произведений, а занимается лишь коллекционированием и каталогизацией ссылок, присылаемых и публикуемых на форуме нашими читателями. Если вы являетесь правообладателем какого-либо представленного материала и не желаете чтобы ссылка на него находилась в нашем каталоге, свяжитесь с нами и мы незамедлительно удалим её. Файлы для обмена на трекере предоставлены пользователями сайта, и администрация не несёт ответственности за их содержание. Просьба не заливать файлы, защищенные авторскими правами, а также файлы нелегального содержания!
cron