На всех торрентах на трекере установлена скидка на скачивание в размере 100 процентов(а).
 Возможность скачивания торрента НЕ зависит от ограничений при низком ратио, низком аплоаде, требуемом ратио или требуемом аплоаде.


Начать новую тему Ответить на тему
Статистика раздачи
Размер: 14.34 ГБ | Добавлен: 07 июл 2013, 11:09 | Скачали: 6
Сидеров: 28  [0 байт/сек]    Личеров: 15  [0 байт/сек]
Пред. тема | След. тема 

Автор
Сообщение

СообщениеДобавлено: 07 июл 2013, 11:09 

Ответить с цитатой 

Жанр: Hard Rock
Продолжительность: 01:55:08
Год выпуска: 2013
Описание: Эпическое шоу 20 июня 2013 г. на Hallenstadion в Цюрихе в рамках мирового тура The Kiss Monster.
Треклист:
1. Psycho Circus
2. Shout It Out Loud
3. Let Me Go, Rock 'N' Roll
4. I Love It Loud
5. Hell or Hallelujah
6. War Machine
7. Heaven's on Fire
8. Deuce
9. Say Yeah
10. Shock Me
11. Outta This World
12. God of Thunder
13. Lick It Up
14. Love Gun
15. Rock and Roll All Nite
16. Detroit Rock City
17. I Was Made for Lovin' You
18 Black Diamond
19. God Gave Rock 'n' Roll to You II
Качество: HDTV 1080i
Контейнер: TS
Видео кодек: MPEG2
Видео: 1920x1080 (16:9), 16.6 Mbps, 29.970 fps
Аудио: AC3, 384 Kbps, 48.0 Khz, 6 ch[/font]
Отчёт MediaInfo / BDInfo
Код:
Код:
General
ID                                       : 1 (0x1)
Complete name                            : \KISS The Kiss Monster World Tour Live From Hallenstadion  Zurich  Switzerland 2013 1080i HDTV DD5.1 MPEG2-TrollHD.ts
Format                                   : MPEG-TS
File size                                : 14.3 GiB
Duration                                 : 1h 55mn
Overall bit rate mode                    : Variable
Overall bit rate                         : 17.8 Mbps[br][/br]Video
ID                                       : 538 (0x21A)
Menu ID                                  : 1 (0x1)
Format                                   : MPEG Video
Format version                           : Version 2
Format profile                           : Main@High
Format settings, BVOP                    : Yes
Format settings, Matrix                  : Custom
Format settings, GOP                     : M=3, N=15
Codec ID                                 : 2
Duration                                 : 1h 55mn
Bit rate mode                            : Variable
Bit rate                                 : 16.6 Mbps
Maximum bit rate                         : 65.0 Mbps
Width                                    : 1 920 pixels
Height                                   : 1 080 pixels
Display aspect ratio                     : 16:9
Frame rate                               : 29.970 fps
Color space                              : YUV
Chroma subsampling                       : 4:2:0
Bit depth                                : 8 bits
Scan type                                : Interlaced
Scan order                               : Top Field First
Compression mode                         : Lossy
Bits/(Pixel*Frame)                       : 0.266
Time code of first frame                 : 00:00:00;00
Time code source                         : Group of pictures header
Stream size                              : 13.3 GiB (93%)[br][/br]Audio
ID                                       : 537 (0x219)
Menu ID                                  : 1 (0x1)
Format                                   : AC-3
Format/Info                              : Audio Coding 3
Mode extension                           : CM (complete main)
Format settings, Endianness              : Big
Codec ID                                 : 129
Duration                                 : 1h 55mn
Bit rate mode                            : Constant
Bit rate                                 : 384 Kbps
Channel(s)                               : 6 channels
Channel positions                        : Front: L C R, Side: L R, LFE
Sampling rate                            : 48.0 KHz
Bit depth                                : 16 bits
Compression mode                         : Lossy
Delay relative to video                  : 23ms
Stream size                              : 316 MiB (2%)
Language                                 : English[br][/br]Text #1
ID                                       : 538 (0x21A)-CC1
Menu ID                                  : 1 (0x1)
Format                                   : EIA-608
Muxing mode                              : A/53 / DTVCC Transport
Muxing mode, more info                   : Muxed in Video #1
Duration                                 : 1h 55mn
Bit rate mode                            : Constant
Stream size                              : 0.00 Byte (0%)[br][/br]Text #2
ID                                       : 538 (0x21A)-1
Menu ID                                  : 1 (0x1)
Format                                   : EIA-708
Muxing mode                              : A/53 / DTVCC Transport
Muxing mode, more info                   : Muxed in Video #1
Duration                                 : 1h 55mn
Bit rate mode                            : Constant
Stream size                              : 0.00 Byte (0%)

Скриншоты
Правила, инструкции, FAQ!!!
Торрент  Добавлен [07 июл 2013, 11:09] Скачать торрент Магнет ссылка
Скачать торрент
[ Размер 36.44 КБ / Просмотров 37 ]

Статус
Проверен Bionik (07 июл 2013, 11:11)
 
Размер  14.34 ГБ
Приватный: Нет (DHT включён)
.torrent скачан  6
Как залить торрент? | Как скачать Torrent? | Ошибка в торренте? Качайте магнет  


     Отправить личное сообщение
   
Страница 1 из 1
Показать сообщения за:  Поле сортировки  
Начать новую тему Ответить на тему

   Похожие торренты   Автор   Ответы   Просмотры   Последнее сообщение 
В этой теме нет новых непрочитанных сообщений. Скачать торрент Проверен (Prog/Art-Rock) Roger Waters - Live in Zurich, Switzerland (July 3, 1984, Hallenstadion) - 1984, FLAC (tracks+.cue), lossless

в форуме Progressive & Art-Rock, Размер: 731.03 МБ, Здоровье: 100%

Anonymous

0
3|1

17
0

29 авг 2016, 23:27

Anonymous Перейти к последнему сообщению

В этой теме нет новых непрочитанных сообщений. Скачать торрент Проверен Kiss - Monster (2012) International Tour Edition / 2013, Universal / [FLAC|Lossless]<Glam Hard Rock>

в форуме Рок, Панк, Метал, Альтернатива, Размер: 369.83 МБ, Здоровье: 71%

Anonymous

0
5|7

71
0

21 июл 2014, 10:13

Anonymous Перейти к последнему сообщению

В этой теме нет новых непрочитанных сообщений. Скачать торрент Проверен Kiss - Live At Rock Am Ring [2010, Hard Rock, HDTV 1080i]

в форуме Концерты (HD-Video), Размер: 8.65 ГБ, Здоровье: 100%

Anonymous

0
14|8

54
3

23 окт 2016, 16:27

Anonymous Перейти к последнему сообщению

В этой теме нет новых непрочитанных сообщений. Скачать торрент Проверен Clutch • Earth Rocker World Tour • Live in Denver [2013, Hard rock, Blues rock, Stoner rock, Southern rock, HDTV 1080i]

в форуме Концерты (HD-Video), Размер: 7.18 ГБ, Здоровье: 100%

Гость

0
5|1

127
1

29 апр 2015, 19:17

Гость Перейти к последнему сообщению

В этой теме нет новых непрочитанных сообщений. Скачать торрент Проверен Kiss - Kiss My Ass [1994, rock, documentary, HDTV 1080р]

в форуме Концерты (HD-Video), Размер: 7.29 ГБ, Здоровье: 100%

Anonymous

0
10|9

149
3

29 апр 2015, 19:33

Anonymous Перейти к последнему сообщению



Сейчас этот форум просматривают: нет зарегистрированных пользователей и гости: 0


Вы не можете начинать темы
Вы не можете отвечать на сообщения
Вы не можете редактировать свои сообщения
Вы не можете удалять свои сообщения
Вы не можете добавлять вложения

Перейти:  
Ресурс не предоставляет электронные версии произведений, а занимается лишь коллекционированием и каталогизацией ссылок, присылаемых и публикуемых на форуме нашими читателями. Если вы являетесь правообладателем какого-либо представленного материала и не желаете чтобы ссылка на него находилась в нашем каталоге, свяжитесь с нами и мы незамедлительно удалим её. Файлы для обмена на трекере предоставлены пользователями сайта, и администрация не несёт ответственности за их содержание. Просьба не заливать файлы, защищенные авторскими правами, а также файлы нелегального содержания!
cron