На всех торрентах на трекере установлена скидка на скачивание в размере 100 процентов(а).
 Возможность скачивания торрента НЕ зависит от ограничений при низком ратио, низком аплоаде, требуемом ратио или требуемом аплоаде.


Начать новую тему Ответить на тему
Статистика раздачи
Размер: 2.16 ГБ | Добавлен: 01 апр 2014, 09:35 | Скачали: 3
Сидеров: 17  [0 байт/сек]    Личеров: 21  [0 байт/сек]
Пред. тема | След. тема 

Автор
Сообщение

СообщениеДобавлено: 01 апр 2014, 09:35 

Ответить с цитатой 

Людовик XI: Разбитая власть / Людовик XI: Король и власть
Louis XI, le pouvoir fracassé

Страна: Франция
Жанр: исторический, драма
Год выпуска: 2010
Продолжительность: 01:35:08

Перевод: Субтитры (перевод О. Першиной, Éclair Group)
Cубтитры: русские
Оригинальная аудиодорожка: французский

Режиссер: Анри Эльман / Henri HelmanВ ролях: Жак Перрен / Jacques Perrin (Louis XI), Флоранс Пернель / Florence Pernel (Anne de France), Гаэль Бона / Gaëlle Bona (Jeanne de France), Брюно Дебранд / Bruno Debrandt (Louis d'Orléans), Грегори Фитусси / Grégory Fitoussi (Clément de Saudre), Матье Симоне / Mathieu Simonet (Philippe d'Anjou)

Описание: В августе 1483 года таинственный посланник прибыл в замок Плесси-ле-Тур, где в уединении живет ослабленный болезнью король Людовик XI. Посланник раскрывает тайный план герцога Орлеанского убийства короля. Имея разветвленную сеть соглядатаев и шпионов король был в курсе всех событий. Его борьба с феодальной раздробленностью многим была поперек горла. Король окружил себя астрологами, боялся смерти, посылал богатые пожертвования в церкви, но до последней минуты обдумывал политические планы по сохранению целостности государства.

Доп. информация: Собственная запись со спутника (канал TV5MONDE, пакет НТВ+).

Награда Le Festival des Créations Télévisuelles de Luchon 2011 лучшему актеру (Jacques Perrin).



Сэмпл: http://multi-up.com/773390

Качество видео: DVB
Формат видео: MPG

Видео: MPEG Video 2, 720x576@1024x576 (16:9), 25 fps, ~2994 kbps avg
Аудио: Французский (48 kHz, MPEG Audio 2, 2 ch, ~192.00 kbps avg)
Формат субтитров: hardsub (неотключаемые)
MediaInfo
Код:
Полное имя                               : H:\My Torrents\[apreder]Louis_XI_le_pouvoir_fracasse(2010)DVB.mpg
Формат                                   : MPEG-PS
Размер файла                             : 2,16 Гбайт
Продолжительность                        : 1 ч. 35 м.
Режим общего битрейта                    : Переменный
Общий поток                              : 3251 Кбит/сек

Видео
Идентификатор                            : 224 (0xE0)
Формат                                   : MPEG Video
Версия формата                           : Version 2
Профиль формата                          : Main@Main
Параметр BVOP формата                    : Да
Параметр матрицы формата                 : Выборочная
Продолжительность                        : 1 ч. 35 м.
Вид битрейта                             : Переменный
Битрейт                                  : 2994 Кбит/сек
Ширина                                   : 720 пикселей
Высота                                   : 576 пикселей
Соотношение сторон                       : 16:9
Частота кадров                           : 25,000 кадров/сек
Стандарт вещания                         : PAL
Цветовое пространство                    : YUV
Субдискретизация насыщенности            : 4:2:0
Битовая глубина                          : 8 бит
Метод сжатия                             : С потерями
Бит/(Пиксели*Кадры)                      : 0.289
Размер потока                            : 1,99 Гбайт (92%)

Аудио
Идентификатор                            : 192 (0xC0)
Формат                                   : MPEG Audio
Версия формата                           : Version 1
Профиль формата                          : Layer 2
Продолжительность                        : 1 ч. 35 м.
Вид битрейта                             : Постоянный
Битрейт                                  : 192 Кбит/сек
Каналы                                   : 2 канала
Частота                                  : 48,0 КГц
Метод сжатия                             : С потерями
Размер потока                            : 131 Мбайт (6%)
Скриншот c названием фильма
Скриншоты


Скриншоты анаморфированные


Правила, инструкции, FAQ!!!
Торрент  Добавлен [01 апр 2014, 09:35] Скачать торрент Магнет ссылка
Скачать торрент
[ Размер 11.3 КБ / Просмотров 93 ]

Статус  
 
Размер  2.16 ГБ
Приватный: Нет (DHT включён)
.torrent скачан  3
Как залить торрент? | Как скачать Torrent? | Ошибка в торренте? Качайте магнет  


     Отправить личное сообщение
   
Страница 1 из 1
Показать сообщения за:  Поле сортировки  
Начать новую тему Ответить на тему

   Похожие торренты   Автор   Ответы   Просмотры   Последнее сообщение 
В этой теме нет новых непрочитанных сообщений. Скачать торрент Шарлотта Корде / Charlotte Corday ( Анри Эльман / Henri Helman ) [2007, Историческая Драма, SATRip]

в форуме Исторические, Размер: 1.37 ГБ, Здоровье: 100%

Anonymous

0
20|6

495
3

17 фев 2014, 11:44

Anonymous Перейти к последнему сообщению

В этой теме нет новых непрочитанных сообщений. Скачать торрент Проверен Людовик XV: Черное солнце / Louis XV, le soleil noir (2009) DVDRip

в форуме Исторические, Размер: 1.37 ГБ, Здоровье: 74%

Anonymous

0
59|79

939
90

28 ноя 2014, 23:32

Anonymous Перейти к последнему сообщению

В этой теме нет новых непрочитанных сообщений. Скачать торрент Проверен Александр Дюма - Людовик XIII и Ришелье [Михаил Поздняков, 2010, исторический роман, классика, m4b, 64]

в форуме Аудиокниги (AAC, ALAC), Размер: 542.91 МБ, Здоровье: 100%

Anonymous

0
3|1

90
3

28 авг 2016, 15:52

Anonymous Перейти к последнему сообщению

В этой теме нет новых непрочитанных сообщений. Скачать торрент Генрих Наваррский / Henri 4 (2 части из 2) (Джо Байер / Jo Baier) [2009, Германия, Франция, Австрия, Испания, драма, исторический, DVDRip] MVO

в форуме Исторические, Размер: 2.88 ГБ, Здоровье: 100%

Anonymous

0
70|22

457
5

01 апр 2014, 09:35

Anonymous Перейти к последнему сообщению

В этой теме нет новых непрочитанных сообщений. Скачать торрент Проверен Вилли I / Вилли Первый / Willy 1er (Людовик Букерма / Ludovic Boukherma, Зоран Букерма / Zoran Boukherma, Мариэль Готье / Marielle Gautier) [2016, Франция, комедия, драма, WEBRip 1080p] Sub (Rus, Eng, Fre, Ger) + Original (Fre)

в форуме Фильмы 2016-2017, Размер: 2.9 ГБ, Здоровье: 100%

Anonymous

0
2|0

24
0

03 фев 2018, 20:35

Anonymous Перейти к последнему сообщению



Сейчас этот форум просматривают: нет зарегистрированных пользователей и гости: 0


Вы не можете начинать темы
Вы не можете отвечать на сообщения
Вы не можете редактировать свои сообщения
Вы не можете удалять свои сообщения
Вы не можете добавлять вложения

Перейти:  
Ресурс не предоставляет электронные версии произведений, а занимается лишь коллекционированием и каталогизацией ссылок, присылаемых и публикуемых на форуме нашими читателями. Если вы являетесь правообладателем какого-либо представленного материала и не желаете чтобы ссылка на него находилась в нашем каталоге, свяжитесь с нами и мы незамедлительно удалим её. Файлы для обмена на трекере предоставлены пользователями сайта, и администрация не несёт ответственности за их содержание. Просьба не заливать файлы, защищенные авторскими правами, а также файлы нелегального содержания!
cron