На всех торрентах на трекере установлена скидка на скачивание в размере 100 процентов(а).
 Возможность скачивания торрента НЕ зависит от ограничений при низком ратио, низком аплоаде, требуемом ратио или требуемом аплоаде.


Начать новую тему Ответить на тему
Статистика раздачи
Размер: 1.47 ГБ | Добавлен: 10 янв 2014, 20:28 | Скачали: 0
Сидеров: 1  [0 байт/сек]    Личеров: 0  [0 байт/сек]
Пред. тема | След. тема 

Автор
Сообщение

СообщениеДобавлено: 10 янв 2014, 20:28 

Ответить с цитатой 

Название: Марьян
Оригинальное название: Maryan
Год выпуска: 2013
Жанр: Триллер, драма, мелодрама
Режиссер: Ганапатхи Бхарат

В ролях: Дхануш, Парвати, Салим Кумар, Ума Рияз Кхан, Аппукутту

О фильме: Марьян готовится вернуться домой после двухгодичного рабочего контракта в Африке. Он с нетерпением ждет встречи со своей невестой, Пани. Непредвиденные обстоятельства поставят под сомнение не только их встречу, но и всю дальнейшую жизнь. Это фильм о надежде, о выживании и, конечно, о любви...



Страна: Индия
Студия: Aascar Film P., Bharatbala Productions
Перевод: Любительский (одноголосый) (datynet)
Продолжительность: 02:18:25


Качество: DVDRip
Видео: DivX, 1317 Кбит/с, 720х304
Аудио : Русский (MP3, 2 ch, 192 Кбит/с)

Релиз от: от
Озвучка: datynet (mediaclub)
Перевод: Soniya (форум indomania)
Видеоряд: Vasantsena (форум indomania)
Семпл

Общее
Полное имя : D:[Релизы]Maryan.2013.DVDRip.MediaClub.avi
Формат : AVI
Формат/Информация : Audio Video Interleave
Размер файла : 1,47 Гбайт
Продолжительность : 2 ч. 18 м.
Общий поток : 1519 Кбит/сек
Программа кодирования : VirtualDubMod 1.5.10.3 | http://www.virtualdub-fr.org || (build 2550/release)
Библиотека кодирования : VirtualDub build 34753/release

Видео
Идентификатор : 0
Формат : MPEG-4 Visual
Профиль формата : Advanced Simple@L5
Параметр BVOP формата : 1
Параметр QPel формата : Нет
Параметр GMC формата : Без точки перехода
Параметр матрицы формата : Default (MPEG)
Идентификатор кодека : DX50
Идентификатор кодека/Подсказка : DivX 5
Продолжительность : 2 ч. 18 м.
Битрейт : 1317 Кбит/сек
Ширина : 720 пикселей
Высота : 304 пикселя
Соотношение сторон : 2,35:1
Частота кадров : 25,000 кадров/сек
Цветовое пространство : YUV
Субдискретизация насыщенности : 4:2:0
Битовая глубина : 8 бит
Тип развёртки : Прогрессивная
Метод сжатия : С потерями
Бит/(Пиксели*Кадры) : 0.241
Размер потока : 1,27 Гбайт (87%)
Библиотека кодирования : XviD 1.2.1 (UTC 2008-12-04)

Аудио
Идентификатор : 1
Формат : MPEG Audio
Версия формата : Version 1
Профиль формата : Layer 3
Идентификатор кодека : 55
Идентификатор кодека/Подсказка : MP3
Продолжительность : 2 ч. 18 м.
Вид битрейта : Постоянный
Битрейт : 192 Кбит/сек
Каналы : 2 канала
Частота : 44,1 КГц
Метод сжатия : С потерями
Размер потока : 190 Мбайт (13%)
Выравнивание : Разделение по промежуткам
Продолжительность промежутка : 40 мс. (1,00 видеокадр)
Время предзагрузки промежутка : 500 мс.



Правила, инструкции, FAQ!!!
Торрент  Добавлен [10 янв 2014, 20:28] Скачать торрент Магнет ссылка
Скачать торрент
[ Размер 15.09 КБ / Просмотров 79 ]

Статус  
 
Размер  1.47 ГБ
Приватный: Нет (DHT включён)
.torrent скачан  0
Как залить торрент? | Как скачать Torrent? | Ошибка в торренте? Качайте магнет  


     Отправить личное сообщение
   
Страница 1 из 1
Показать сообщения за:  Поле сортировки  
Начать новую тему Ответить на тему

   Похожие торренты   Автор   Ответы   Просмотры   Последнее сообщение 
В этой теме нет новых непрочитанных сообщений. Андрей Сидерский | YOGA23FiT. Преподавательский интенсив 2013 [группа 2] (2013) [DVDRip]

в форуме Фитнес - Разум и Тело, Размер: 6.16 ГБ, Здоровье: 100%

Гость

0
172|7

421
2

25 июн 2014, 22:33

Гость Перейти к последнему сообщению

В этой теме нет новых непрочитанных сообщений. Скачать торрент Проверен Мы / Vi (2013) DVDRip | L1

в форуме Драмы, Мелодрамы, Размер: 699.78 МБ, Здоровье: 100%

Anonymous

0
1054|387

187
327

03 сен 2015, 19:28

Anonymous Перейти к последнему сообщению

В этой теме нет новых непрочитанных сообщений. Скачать торрент Вий (2013) DVDRip

в форуме Фантастика, Фэнтези, Размер: 1.46 ГБ, Здоровье: 100%

Anonymous

0
22|0

360
2

02 мар 2014, 10:06

Anonymous Перейти к последнему сообщению

В этой теме нет новых непрочитанных сообщений. Скачать торрент Проверен Ида / Ida (2013) DVDRip | L1

в форуме Драмы, Мелодрамы, Размер: 1.13 ГБ, Здоровье: 100%

Anonymous

0
21|0

87
86

31 май 2014, 06:34

Anonymous Перейти к последнему сообщению

В этой теме нет новых непрочитанных сообщений. Скачать торрент Вот это любовь! (2013) DVDRip

в форуме Комедии, Размер: 704.62 МБ, Здоровье: 100%

Anonymous

0
24|1

65
32

20 янв 2014, 19:45

Anonymous Перейти к последнему сообщению



Сейчас этот форум просматривают: нет зарегистрированных пользователей и гости: 0


Вы не можете начинать темы
Вы не можете отвечать на сообщения
Вы не можете редактировать свои сообщения
Вы не можете удалять свои сообщения
Вы не можете добавлять вложения

Перейти:  
Ресурс не предоставляет электронные версии произведений, а занимается лишь коллекционированием и каталогизацией ссылок, присылаемых и публикуемых на форуме нашими читателями. Если вы являетесь правообладателем какого-либо представленного материала и не желаете чтобы ссылка на него находилась в нашем каталоге, свяжитесь с нами и мы незамедлительно удалим её. Файлы для обмена на трекере предоставлены пользователями сайта, и администрация не несёт ответственности за их содержание. Просьба не заливать файлы, защищенные авторскими правами, а также файлы нелегального содержания!
cron