На всех торрентах на трекере установлена скидка на скачивание в размере 100 процентов(а).
 Возможность скачивания торрента НЕ зависит от ограничений при низком ратио, низком аплоаде, требуемом ратио или требуемом аплоаде.


Начать новую тему Ответить на тему
Статистика раздачи
Размер: 1.46 ГБ | Добавлен: 11 июн 2018, 09:31 | Скачали: 0
Сидеров: 35  [0 байт/сек]    Личеров: 11  [0 байт/сек]
Пред. тема | След. тема 

Автор
Сообщение

СообщениеДобавлено: 11 июн 2018, 09:31 

Ответить с цитатой 

Меган Ливи / Megan Leavey
Страна: США
Жанр: драма, военный, биография
Год выпуска: 2017
Продолжительность: 01:56:36
Перевод: Профессиональный (многоголосый закадровый) | iTunes
Субтитры: нет
Оригинальная аудиодорожка: нет
Режиссер:
Габриэла Каупертвэйте / Gabriela Cowperthwaite
В ролях:
Кейт Мара, Джеральдин Джеймс, Брэдли Уитфорд, Том Фелтон, Иди Фалко, Коммон, Уилл Пэттон, Шеннон Тарбет, Рамон Родригес, Кори Джонсон
Описание:
Американская военнослужащая Меган Ливи со служебной собакой проходит службу в Ираке, где находят взрывные устройства.
Качество видео: BDRip | MEGAN_LEAVEY_2017_BLUEBIRD
Формат видео: AVI
Видео: 720x304 (2.37:1), 23.976 fps, XviD build 73 ~1398 kbps avg, 0.27 bit/pixel
Аудио: 48 kHz, AC3 Dolby Digital, 3/2 (L,C,R,l,r) + LFE ch, ~384 kbps
Сэмпл[/spoiler]
Код:
Код:
Код:
Format                      : AVI
Format/Info                 : Audio Video Interleave
File size                   : 1.46 GiB
Duration                    : 1 h 56 min
Overall bit rate            : 1 792 kb/s
Writing application         : VirtualDubMod 1.5.10.3 | www.virtualdub-fr.org || (build 2550/release)
Writing library             : VirtualDubMod build 2550/release
Video
ID                          : 0
Format                      : MPEG-4 Visual
Format profile              : Advanced Simple@L5
Format settings             : BVOP1 / Custom Matrix
Format settings, BVOP       : 1
Format settings, QPel       : No
Format settings, GMC        : No warppoints
Format settings, Matrix     : Custom
Codec ID                    : XVID
Codec ID/Hint               : XviD
Duration                    : 1 h 56 min
Bit rate                    : 1 399 kb/s
Width                       : 720 pixels
Height                      : 304 pixels
Display aspect ratio        : 2.35:1
Frame rate                  : 23.976 (24000/1001) FPS
Color space                 : YUV
Chroma subsampling          : 4:2:0
Bit depth                   : 8 bits
Scan type                   : Progressive
Compression mode            : Lossy
Bits/(Pixel*Frame)          : 0.267
Stream size                 : 1.14 GiB (78%)
Writing library             : XviD 73
Audio
ID                          : 1
Format                      : AC-3
Format/Info                 : Audio Coding 3
Codec ID                    : 2000
Duration                    : 1 h 56 min
Bit rate mode               : Constant
Bit rate                    : 384 kb/s
Channel(s)                  : 6 channels
Channel positions           : Front: L C R, Side: L R, LFE
Sampling rate               : 48.0 kHz
Frame rate                  : 31.250 FPS (1536 SPF)
Bit depth                   : 16 bits
Compression mode            : Lossy
Stream size                 : 321 MiB (21%)
Alignment                   : Split accross interleaves
Interleave, duration        : 42  ms (1.00 video frame)
Interleave, preload duratio : 500  ms
Service kind                : Complete Main


Правила, инструкции, FAQ!!!
Торрент  Добавлен [11 июн 2018, 09:31] Скачать торрент Магнет ссылка
Скачать торрент
[ Размер 15.06 КБ / Просмотров 58 ]

Статус
Проверен 
 
Размер  1.46 ГБ
Приватный: Нет (DHT включён)
.torrent скачан  0
Как залить торрент? | Как скачать Torrent? | Ошибка в торренте? Качайте магнет  


     Отправить личное сообщение
   
Страница 1 из 1
Показать сообщения за:  Поле сортировки  
Начать новую тему Ответить на тему

   Похожие торренты   Автор   Ответы   Просмотры   Последнее сообщение 
В этой теме нет новых непрочитанных сообщений. Скачать торрент Проверен Меган Ливи / Megan Leavey (Габриэла Каупертвэйте / Gabriela Cowperthwaite) [2017, США, драма, военный, биография, BDRip-AVC] MVO

в форуме Фильмы 2016-2017, Размер: 1.46 ГБ, Здоровье: 100%

Anonymous

0
28|9

34
0

11 июн 2018, 09:31

Anonymous Перейти к последнему сообщению

В этой теме нет новых непрочитанных сообщений. Скачать торрент Проверен Жена смотрителя зоопарка / The Zookeeper's Wife (Ники Каро / Niki Caro) [2017, США, Драма, военный, биография, история, WEB-DLRip] Dub (iTunes)

в форуме Фильмы 2016-2017, Размер: 1.46 ГБ, Здоровье: 100%

Anonymous

0
35|11

27
0

03 фев 2018, 20:24

Anonymous Перейти к последнему сообщению

В этой теме нет новых непрочитанных сообщений. Скачать торрент Проверен Репортерша / Whiskey Tango Foxtrot (Гленн Фикарра / Glenn Ficarra, Джон Рекуа / John Requa) [2016, США, драма, комедия, военный, биография, BDRip] Dub (iTunes)

в форуме Фильмы 2016-2017, Размер: 746.75 МБ, Здоровье: 0%

Anonymous

0
0|0

13
0

03 фев 2018, 20:46

Anonymous Перейти к последнему сообщению

В этой теме нет новых непрочитанных сообщений. Скачать торрент Проверен Свободный штат Джонса / Free State of Jones (Гэри Росс / Gary Ross) [2016, США, боевик, драма, военный, биография, история, BDRip] MVO (iTunes) + Sub (Rus, Eng) + Original Eng

в форуме Фильмы 2016-2017, Размер: 2.19 ГБ, Здоровье: 100%

Anonymous

0
35|11

52
0

05 окт 2018, 19:46

Anonymous Перейти к последнему сообщению

В этой теме нет новых непрочитанных сообщений. Скачать торрент Проверен Репортерша / Whiskey Tango Foxtrot (Гленн Фикарра / Glenn Ficarra, Джон Рекуа / John Requa) [2016, США, драма, комедия, военный, биография, BDRip] Dub (iTunes) + Sub Rus + Original Eng

в форуме Фильмы 2016-2017, Размер: 2.18 ГБ, Здоровье: 0%

Anonymous

0
0|0

19
0

03 фев 2018, 20:46

Anonymous Перейти к последнему сообщению



Сейчас этот форум просматривают: нет зарегистрированных пользователей и гости: 1


Вы не можете начинать темы
Вы не можете отвечать на сообщения
Вы не можете редактировать свои сообщения
Вы не можете удалять свои сообщения
Вы не можете добавлять вложения

Перейти:  
Ресурс не предоставляет электронные версии произведений, а занимается лишь коллекционированием и каталогизацией ссылок, присылаемых и публикуемых на форуме нашими читателями. Если вы являетесь правообладателем какого-либо представленного материала и не желаете чтобы ссылка на него находилась в нашем каталоге, свяжитесь с нами и мы незамедлительно удалим её. Файлы для обмена на трекере предоставлены пользователями сайта, и администрация не несёт ответственности за их содержание. Просьба не заливать файлы, защищенные авторскими правами, а также файлы нелегального содержания!
cron