На всех торрентах на трекере установлена скидка на скачивание в размере 100 процентов(а).
 Возможность скачивания торрента НЕ зависит от ограничений при низком ратио, низком аплоаде, требуемом ратио или требуемом аплоаде.


Начать новую тему Ответить на тему
Статистика раздачи
Размер: 1.46 ГБ | Добавлен: 11 июн 2018, 09:31 | Скачали: 0
Сидеров: 28  [0 байт/сек]    Личеров: 9  [0 байт/сек]
Пред. тема | След. тема 

Автор
Сообщение

СообщениеДобавлено: 11 июн 2018, 09:31 

Ответить с цитатой 


Меган Ливи / Megan Leavey

«The true story of a marine's best friend»


Страна: США
Жанр: драма, военный, биография
Год выпуска: 2017
Продолжительность: 01:56:36
Перевод: Профессиональный (многоголосый закадровый) iTunes
Субтитры: нет
Оригинальная аудиодорожка: нет
Режиссер: Габриэла Каупертвэйте / Gabriela Cowperthwaite
В ролях: Кейт Мара, Джеральдин Джеймс, Брэдли Уитфорд, Том Фелтон, Иди Фалко, Коммон, Уилл Пэттон, Шеннон Тарбет, Рамон Родригес, Кори Джонсон
Описание: Американская военнослужащая Меган Ливи со служебной собакой проходит службу в Ираке, где находят взрывные устройства.


Качество видео: BDRip-AVC / Megan.Leavey.2017.REMUX.1080p.BluRay.AVC.DTS-HD.MA.5.1-iFT
Формат видео: MKV
Видео: MPEG-4 AVC, 874x366 (2.40:1), 23.976 fps, ~1373 kbps avg, 0.179 bit/pixel
Аудио: 48 kHz, AC3 Dolby Digital, 3/2 (L,C,R,l,r) + LFE ch, ~384 kbps avg
Код:
Код:
Код:
Complete name               : D:\Раздача\Меган Ливи (2017) BDRip-AVC_ivanes20031987.mkv
Format                      : Matroska
Format version              : Version 2
File size                   : 1.46 GiB
Duration                    : 1 h 56 min
Overall bit rate            : 1 793 kb/s
Movie name                  : Меган Ливи (2017) BDRip-AVC_ivanes20031987
Encoded date                : UTC 2018-06-06 10:24:25
Writing application         : mkvmerge v4.4.0 ('Die Wiederkehr') сборка от Jan  3 2011 21:40:45
Writing library             : libebml v1.0.0 + libmatroska v1.0.0
Cover                       : Yes
Attachments                 : cover.png
Video
ID                          : 1
Format                      : AVC
Format/Info                 : Advanced Video Codec
Format profile              : High@L4.1
Format settings, CABAC      : Yes
Format settings, RefFrames  : 14 frames
Codec ID                    : V_MPEG4/ISO/AVC
Duration                    : 1 h 56 min
Bit rate                    : 1 373 kb/s
Width                       : 874 pixels
Height                      : 366 pixels
Display aspect ratio        : 2.40:1
Frame rate mode             : Constant
Frame rate                  : 23.976 (24000/1001) FPS
Color space                 : YUV
Chroma subsampling          : 4:2:0
Bit depth                   : 8 bits
Scan type                   : Progressive
Bits/(Pixel*Frame)          : 0.179
Stream size                 : 1.12 GiB (77%)
Title                       : Rip by ivanes20031987
Writing library             : x264 core 155 r2901 7d0ff22
Encoding settings           : cabac=1 / ref=14 / deblock=1:-3:-3 / analyse=0x3:0x113 / me=umh / subme=10 / psy=1 / psy_rd=1.00:0.00 / mixed_ref=1 / me_range=32 / chroma_me=1 / trellis=2 / 8x8dct=1 / cqm=0 / deadzone=21,11 / fast_pskip=0 / chroma_qp_offset=-2 / threads=12 / lookahead_threads=2 / sliced_threads=0 / nr=0 / decimate=0 / interlaced=0 / bluray_compat=0 / constrained_intra=0 / bframes=14 / b_pyramid=2 / b_adapt=2 / b_bias=0 / direct=1 / weightb=1 / open_gop=0 / weightp=2 / keyint=240 / keyint_min=23 / scenecut=40 / intra_refresh=0 / rc_lookahead=60 / rc=crf / mbtree=0 / crf=17.3 / qcomp=0.60 / qpmin=0 / qpmax=69 / qpstep=4 / vbv_maxrate=50000 / vbv_bufsize=62500 / crf_max=0.0 / nal_hrd=none / filler=0 / ip_ratio=1.40 / pb_ratio=1.30 / aq=1:1.00
Default                     : Yes
Forced                      : No
Audio
ID                          : 2
Format                      : AC-3
Format/Info                 : Audio Coding 3
Format settings, Endianness : Big
Codec ID                    : A_AC3
Duration                    : 1 h 56 min
Bit rate mode               : Constant
Bit rate                    : 384 kb/s
Channel(s)                  : 6 channels
Channel positions           : Front: L C R, Side: L R, LFE
Sampling rate               : 48.0 kHz
Frame rate                  : 31.250 FPS (1536 SPF)
Bit depth                   : 16 bits
Compression mode            : Lossy
Stream size                 : 320 MiB (21%)
Title                       : iTunes
Language                    : Russian
Service kind                : Complete Main
Default                     : Yes
Forced                      : No

[code]
x264 [info]: frame I:1293 Avg QP:15.39 size: 44656
x264 [info]: frame P:39225 Avg QP:17.83 size: 15977
x264 [info]: frame B:127235 Avg QP:19.63 size: 4282
x264 [info]: consecutive B-frames: 3.5% 4.0% 10.7% 22.0% 15.9% 26.4% 4.6% 3.4% 3.7% 1.8% 0.8% 1.0% 0.6% 0.7% 0.9%
x264 [info]: mb I I16..4: 7.5% 73.3% 19.2%
x264 [info]: mb P I16..4: 1.0% 10.5% 1.7% P16..4: 35.9% 28.5% 15.2% 0.0% 0.0% skip: 7.2%
x264 [info]: mb B I16..4: 0.1% 0.6% 0.1% B16..8: 37.1% 13.3% 3.9% direct: 4.6% skip:40.3% L0:41.1% L1:42.2% BI:16.7%
x264 [info]: 8x8 transform intra:77.4% inter:59.2%
x264 [info]: coded y,uvDC,uvAC intra: 87.9% 81.9% 60.5% inter: 22.4% 16.0% 8.5%
x264 [info]: i16 v,h,dc,p: 50% 14% 6% 30%
x264 [info]: i8 v,h,dc,ddl,ddr,vr,hd,vl,hu: 13% 11% 8% 8% 12% 13% 12% 11% 13%
x264 [info]: i4 v,h,dc,ddl,ddr,vr,hd,vl,hu: 12% 10% 4% 8% 15% 14% 13% 11% 12%
x264 [info]: i8c dc,h,v,p: 43% 24% 19% 14%
x264 [info]: Weighted P-Frames: Y:3.9% UV:1.5%
x264 [info]: ref P L0: 53.2% 14.2% 12.9% 4.7% 3.8% 2.6% 2.3% 1.2% 1.2% 0.9% 0.9% 0.7% 0.7% 0.7% 0.1% 0.0%
x264 [info]: ref B L0: 77.9% 9.4% 4.4% 2.3% 1.6% 1.2% 0.9% 0.6% 0.5% 0.4% 0.4% 0.2% 0.1%
x264 [info]: ref B L1: 95.3% 4.7%
x264 [info]: kb/s:1405.55
Правила, инструкции, FAQ!!!
Торрент  Добавлен [11 июн 2018, 09:31] Скачать торрент Магнет ссылка
Скачать торрент
[ Размер 15.08 КБ / Просмотров 74 ]

Статус
Проверен 
 
Размер  1.46 ГБ
Приватный: Нет (DHT включён)
.torrent скачан  0
Как залить торрент? | Как скачать Torrent? | Ошибка в торренте? Качайте магнет  


     Отправить личное сообщение
   
Страница 1 из 1
Показать сообщения за:  Поле сортировки  
Начать новую тему Ответить на тему

   Похожие торренты   Автор   Ответы   Просмотры   Последнее сообщение 
В этой теме нет новых непрочитанных сообщений. Скачать торрент Проверен Меган Ливи / Megan Leavey (Габриэла Каупертвэйте / Gabriela Cowperthwaite) [2017, США, драма, военный, биография, BDRip] MVO (iTunes)

в форуме Фильмы 2016-2017, Размер: 1.46 ГБ, Здоровье: 100%

Anonymous

0
35|11

44
0

11 июн 2018, 09:31

Anonymous Перейти к последнему сообщению

В этой теме нет новых непрочитанных сообщений. Скачать торрент Проверен Темные времена / Darkest Hour (Джо Райт / Joe Wright) [2017, США, Великобритания, драма, военный, биография, история, BDRip-AVC] Dub + Sub Rus

в форуме Фильмы 2016-2017, Размер: 1.48 ГБ, Здоровье: 100%

Anonymous

0
34|11

19
0

11 июн 2018, 09:26

Anonymous Перейти к последнему сообщению

В этой теме нет новых непрочитанных сообщений. Скачать торрент Проверен Габриэла Мистраль / Gabriela Mistral - Минисборник (5 книг) [1914-1967, FB2, PDF, RTF, RUS]

в форуме Зарубежная литература (XX и XXI век), Размер: 12.62 МБ, Здоровье: 1%

Anonymous

0
5|348

40
0

08 сен 2016, 18:52

Anonymous Перейти к последнему сообщению

В этой теме нет новых непрочитанных сообщений. Скачать торрент Проверен [iPad] Военный ныряльщик / Men of Honor (Джордж Тиллман мл. / George Tillman Jr.) [2000, Драма, биография, BDRip]

в форуме Фильмы для iPod, iPhone, iPad, Размер: 3.62 ГБ, Здоровье: 100%

Гость

0
22|3

83
1

11 май 2015, 01:24

Гость Перейти к последнему сообщению

В этой теме нет новых непрочитанных сообщений. Скачать торрент Проверен [iPad] Морпехи / Jarhead (Сэм Мендес/ Sam Mendes) [2005, Германия, США, Военный, драма, биография, BDRip, 576p] Dub + Original + sub (rus, eng)

в форуме Фильмы для iPod, iPhone, iPad, Размер: 2.11 ГБ, Здоровье: 100%

Anonymous

0
8|1

149
1

18 май 2015, 10:47

Anonymous Перейти к последнему сообщению



Сейчас этот форум просматривают: нет зарегистрированных пользователей и гости: 1


Вы не можете начинать темы
Вы не можете отвечать на сообщения
Вы не можете редактировать свои сообщения
Вы не можете удалять свои сообщения
Вы не можете добавлять вложения

Перейти:  
Ресурс не предоставляет электронные версии произведений, а занимается лишь коллекционированием и каталогизацией ссылок, присылаемых и публикуемых на форуме нашими читателями. Если вы являетесь правообладателем какого-либо представленного материала и не желаете чтобы ссылка на него находилась в нашем каталоге, свяжитесь с нами и мы незамедлительно удалим её. Файлы для обмена на трекере предоставлены пользователями сайта, и администрация не несёт ответственности за их содержание. Просьба не заливать файлы, защищенные авторскими правами, а также файлы нелегального содержания!
cron