На всех торрентах на трекере установлена скидка на скачивание в размере 100 процентов(а).
 Возможность скачивания торрента НЕ зависит от ограничений при низком ратио, низком аплоаде, требуемом ратио или требуемом аплоаде.


Начать новую тему Ответить на тему
Статистика раздачи
Размер: 2.18 ГБ | Добавлен: 29 дек 2014, 17:37 | Скачали: 86
Сидеров: 50  [0 байт/сек]    Личеров: 29  [0 байт/сек]
Пред. тема | След. тема 

Автор
Сообщение

СообщениеДобавлено: 29 дек 2014, 17:37 

Ответить с цитатой 

Название: Невеста Шалтая Шармы
Оригинальное название: Humpty Sharma Ki Dulhania
Год выхода: 2014
Жанр: Драма, Мелодрама, Комедия
Режиссер: Шашанк Хайтан
В ролях: Алиа Бхатт, Варун Дхаван, Ангад Беди, Ашутош Рана, Адитья Шарма, Дипика Амин, Маназ Дамания
О фильме:
В детстве Ракеш Шарма, был маленьким и толстым мальчишкой. И все друзья называли его Шалтаем (Шалта́й-Болта́й от англ. Humpty Dumpty). Но годы идут, и мальчишка превращается в красивого стройного парня, покорителя женских сердец, а вот кличка Шалтай так и остается. Но это совсем не мешает ему любить фильмы с Шахрукх Кханом и Каджол, и мечтать о такой же любви как в "Непохищенной невесте", но он и не подозревает, что фантазии могут стать явью, как только он познакомится с Кавьей Пратап Сингх.

Страна: Индия
Продолжительность: 02:11:09
Перевод: Многоголосый (закадровый) любительский "ICG "
Автор перевода: Rummata

Кодек: Xvid
Качество: HDRip
Видео: ~24.000 fps, 1696 kbps avg, 0.32 bit/pixel, 720x304 (2.37:1)
Audio #1: 48 kHz, Dolby Digital, 3/2 (L,C,R,l,r) + LFE ch, 448 kbps (Русский)
Audio #2: 48 kHz, Dolby Digital, 2/0 (L,R) ch, 224 kbps(Хинди)
Субтитры: Русские
Вид субтитров: Отдельным файлом
Семпл

File: D:Видео 2Невеста Шалтая Шармы.2014.HDRip.avi
General
Complete name : D:Видео 2Невеста Шалтая Шармы.2014.HDRip.avi
Format : AVI
Format/Info : Audio Video Interleave
Format profile : OpenDML
File size : 2.18 GiB
Duration : 2h 11mn
Overall bit rate : 2 375 Kbps
Writing application : VirtualDubModRus 1.5.10.2 (build 2542/release)
Writing library : VirtualDubMod build 2542/release
Video
ID : 0
Format : MPEG-4 Visual
Format profile : Advanced Simple@L5
Format settings, BVOP : 1
Format settings, QPel : No
Format settings, GMC : No warppoints
Format settings, Matrix : Default (MPEG)
Codec ID : XVID
Codec ID/Hint : XviD
Duration : 2h 11mn
Bit rate : 1 685 Kbps
Width : 720 pixels
Height : 304 pixels
Display aspect ratio : 2.35:1
Frame rate : 24.000 fps
Color space : YUV
Chroma subsampling : 4:2:0
Bit depth : 8 bits
Scan type : Progressive
Compression mode : Lossy
Bits/(Pixel*Frame) : 0.321
Stream size : 1.54 GiB (71%)
Writing library : XviD 64
Audio #1
ID : 1
Format : AC-3
Format/Info : Audio Coding 3
Mode extension : CM (complete main)
Format settings, Endianness : Big
Codec ID : 2000
Duration : 2h 11mn
Bit rate mode : Constant
Bit rate : 448 Kbps
Channel(s) : 6 channels
Channel positions : Front: L C R, Side: L R, LFE
Sampling rate : 48.0 KHz
Bit depth : 16 bits
Compression mode : Lossy
Delay relative to video : 21ms
Stream size : 420 MiB (19%)
Alignment : Split accross interleaves
Interleave, duration : 42 ms (1.00 video frame)
Interleave, preload duration : 500 ms
Audio #2
ID : 2
Format : AC-3
Format/Info : Audio Coding 3
Mode extension : CM (complete main)
Format settings, Endianness : Big
Codec ID : 2000
Duration : 2h 11mn
Bit rate mode : Constant
Bit rate : 224 Kbps
Channel(s) : 2 channels
Channel positions : Front: L R
Sampling rate : 48.0 KHz
Bit depth : 16 bits
Compression mode : Lossy
Stream size : 210 MiB (9%)
Alignment : Aligned on interleaves
Interleave, duration : 42 ms (1.00 video frame)
Interleave, preload duration : 512 ms
Правила, инструкции, FAQ!!!
Торрент  Добавлен [29 дек 2014, 17:37] Скачать торрент Магнет ссылка
Скачать торрент
[ Размер 11.58 КБ / Просмотров 29 ]

Статус
Проверен 
 
Размер  2.18 ГБ
Приватный: Нет (DHT включён)
.torrent скачан  86
Как залить торрент? | Как скачать Torrent? | Ошибка в торренте? Качайте магнет  


     Отправить личное сообщение
   
Страница 1 из 1
Показать сообщения за:  Поле сортировки  
Начать новую тему Ответить на тему

   Похожие торренты   Автор   Ответы   Просмотры   Последнее сообщение 
В этой теме нет новых непрочитанных сообщений. Скачать торрент Проверен Белокурая невеста из Лунного Королевства / The White Haired Witch of Lunar Kingdom (2014) HDRip [576p] iPad

в форуме Фильмы для iPod, iPhone, iPad, Размер: 2.39 ГБ, Здоровье: 100%

Anonymous

0
76|1

167
1

13 дек 2014, 00:15

Anonymous Перейти к последнему сообщению

В этой теме нет новых непрочитанных сообщений. Скачать торрент Проверен Блинова Маргарита – Невеста 1, Невеста по обмену [Истарова Наталья, 2018, 128 kbps, MP3]

в форуме Любовно-фантастический роман, Размер: 499.47 МБ, Здоровье: 100%

Anonymous

0
62|13

33
0

23 сен 2018, 09:11

Anonymous Перейти к последнему сообщению

В этой теме нет новых непрочитанных сообщений. Скачать торрент Проверен Куно Ольга – Невеста по завещанию 1, Невеста по завещанию [Ведьма, (ЛИ), 2017, 132 kbps, MP3]

в форуме Любовно-фантастический роман, Размер: 530.83 МБ, Здоровье: 100%

Anonymous

0
32|11

39
5

08 июл 2018, 10:20

Anonymous Перейти к последнему сообщению

В этой теме нет новых непрочитанных сообщений. Скачать торрент Проверен Ффорде Джаспер - Тайна выеденного яйца, или Смерть Шалтая [Theophanu (ЛИ), 2013 г., 128 kbps, MP3]

в форуме Зарубежная фантастика, фэнтези, мистика, ужасы, Размер: 635.75 МБ, Здоровье: 100%

Anonymous

0
18|8

100
0

11 сен 2016, 13:11

Anonymous Перейти к последнему сообщению

В этой теме нет новых непрочитанных сообщений. Скачать торрент Проверен Валерия Вербинина | Черная невеста (2014) [FB2]

в форуме Детективы и Боевики, Размер: 1.36 МБ, Здоровье: 89%

Anonymous

0
33|37

130
0

20 сен 2014, 22:16

Anonymous Перейти к последнему сообщению



Сейчас этот форум просматривают: нет зарегистрированных пользователей и гости: 0


Вы не можете начинать темы
Вы не можете отвечать на сообщения
Вы не можете редактировать свои сообщения
Вы не можете удалять свои сообщения
Вы не можете добавлять вложения

Перейти:  
Ресурс не предоставляет электронные версии произведений, а занимается лишь коллекционированием и каталогизацией ссылок, присылаемых и публикуемых на форуме нашими читателями. Если вы являетесь правообладателем какого-либо представленного материала и не желаете чтобы ссылка на него находилась в нашем каталоге, свяжитесь с нами и мы незамедлительно удалим её. Файлы для обмена на трекере предоставлены пользователями сайта, и администрация не несёт ответственности за их содержание. Просьба не заливать файлы, защищенные авторскими правами, а также файлы нелегального содержания!
cron