На всех торрентах на трекере установлена скидка на скачивание в размере 100 процентов(а).
 Возможность скачивания торрента НЕ зависит от ограничений при низком ратио, низком аплоаде, требуемом ратио или требуемом аплоаде.


Начать новую тему Ответить на тему
Статистика раздачи
Размер: 2.38 ГБ | Добавлен: 02 ноя 2018, 10:50 | Скачали: 2
Сидеров: 7  [0 байт/сек]    Личеров: 5  [0 байт/сек]
Пред. тема | След. тема 

Автор
Сообщение

СообщениеДобавлено: 02 ноя 2018, 10:50 

Ответить с цитатой 

Shadowfax - Коллекция (3 LP)

Жанр: New-Age/Fusion/Chamber jazz/Fusion-Jazz-Rock
Носитель: LP
Год выпуска:
1976
1982
1983
Лейбл:
Passport Records/PPSD 98013
Windham Hill Records/WH-1022
Windham Hill Records/WH-1029
Страна-производитель: US
Аудио кодек: FLAC
Тип рипа: tracks+.cue
Формат записи: 24/96
Формат раздачи: 24/96
Продолжительность:
00:41:33
00:35:02
00:38:41
Источник оцифровки: LP Rip & Full Scan LP Cover: Fran Solo
#777Продолжительность: 00:41:33
Треклист:
A1 The Shape Of A Word
A2 Linear Dance
A3 Petite Aubade
B1 Book Of Hours
B2 The Watercourse Way
B3 Song For My Brother
Код класса состояния винила: Не указан
Устройство воспроизведения: Marantz 6170
Головка звукоснимателя: SHURE M97xE With Jico SAS Stylus
Предварительный усилитель: Sansui 9090DB
АЦП: E-MU 0404
Программа-оцифровщик: XLD
Обработка: Silent spaces haven't been deleted in this rip
----------------------------------------------------------------------------------------------
Analyzed folder: /Shadowfax - Watercourse Way (LP)
----------------------------------------------------------------------------------------------
DR Peak RMS Filename
----------------------------------------------------------------------------------------------
DR12 -0.24 dB -14.87 dB 01 Shadowfax - LADO 1- The Shape Of A Word.wav
DR12 -0.41 dB -14.60 dB 02 Shadowfax - Linear Dance.wav
DR11 -7.68 dB -22.44 dB 03 Shadowfax - Petite Aubade.wav
DR12 -0.17 dB -16.45 dB 04 Shadowfax - LADO 2- Book Of Hours.wav
DR12 -3.51 dB -18.27 dB 05 Shadowfax - Watercourse Way.wav
DR14 -0.88 dB -18.47 dB 06 Shadowfax - Song For My Brother.wav
----------------------------------------------------------------------------------------------
Number of files: 6
Official DR value: DR12
==============================================================================================
Art Direction – Toni J. Wadler
Drums, Tabla, Bongos [Boobams], Metallophone [Lujon], Percussion – Stuart Nevitt
Electric Bass, Double Bass [String Bass], Cowbell – Phil Maggini
Electric Guitar, Twelve-String Guitar, Classical Guitar, Sitar, Vocals – Greg Stinson*
Engineer – Jeffrey M. Kawalek
Grand Piano, Electric Piano, Synthesizer [Moog, Arp, Oberheim Sequencer], Harpsichord, Keyboards [Chamberlin] – Doug Maluchnik
Illustration, Design – Terry Lamb
Lyricon, Soprano Saxophone, Flute, Recorder, Oboe, Bass Clarinet – Chuck Greenberg
Producer – Larry Fast, Marty Scott
#777#777#777
The legendary first pressing of Shadowfax is that I present today. This became legendary because Shadowfax had a silence of about 7 years! When Windham Hill welcomed them reissued this album, but Windham Hill style: new artwork, changes in the original recording … what a mistake! The original cover is a art piece.
I have the reissue on CD, when you hear the LP and to compare the songs altered of the CD (‘Petite Aubade’, ‘Watercourse Way’ and ‘Song for my brother’), will be eliminated instrumentation (this edition brings passages with Mellotron and harpsichord). ‘Watercourse Way’ totally new … by God!
Returning to this album, I find it a masterpiece. There is no denying the influence of different groups that cultivate the Jazz-Rock, Jazz-Fusion and some classical music. Influences like ‘Mahavishnu Orchestra’, ‘Return to Forever’ and ‘Oregon’.
I think it’s an album especially for fans of Shadowfax (and not both), in its most progressive and experimental.
I give it 6 stars of 5.
Fran Solo, MMXII
Marketed By – ABC Records, Inc.
Phonographic Copyright (p) – Passport Records, Inc.
Copyright (c) – Passport Records, Inc.
Recorded At – The House of Music
Mixed At – The House of Music
Mastered At – Sterling Sound
Notes
Recorded and mixed at:
"THE HOUSE OF MUSIC"
West Orange, New Jersey
November 1975
© 1976 Passport Records. Inc. ℗ 1976 Passport Records. Inc.
Barcode and Other Identifiers
Matrix / Runout (Hand-etched side 1): T 1 PPSD-98013-A-1
Matrix / Runout (Hand-etched side 2): T 1 PPSD-98013-B-2
Matrix / Runout (Stamped both sides): Sterling
#777Продолжительность: 00:35:02
Треклист:
A1 Angel's Flight
A2 Vajra
A3 Wheel Of Dreams
A4 Oriental Eyes
B1 Move The Clouds
B2 A Thousand Teardrops
B3 Ariki (Hummingbird Spirit)
B4 Marie
Код класса состояния винила: NM
Устройство воспроизведения: Marantz 6170
Головка звукоснимателя: SHURE M97xE With Jico SAS Stylus
Предварительный усилитель: Sansui 9090DB
АЦП: E-MU 0404
Программа-оцифровщик: iZotope RX3
Обработка: ClickRepair: Only Manual
----------------------------------------------------------------------------------------------
Analyzed folder: /Shadowfax ‎- Shadowfax (LP)
----------------------------------------------------------------------------------------------
DR Peak RMS Filename
----------------------------------------------------------------------------------------------
DR13 -2.76 dB -18.30 dB 01 Shadowfax - LADO 1- Angel's Flight.wav
DR16 -0.20 dB -19.08 dB 02 Shadowfax - Vajra.wav
DR14 -2.06 dB -18.13 dB 03 Shadowfax - Wheel Of Dreams.wav
DR17 -0.17 dB -19.95 dB 04 Shadowfax - Oriental Eyes.wav
DR13 -1.11 dB -17.40 dB 05 Shadowfax - LADO 2- Move The Clouds.wav
DR13 -1.37 dB -18.05 dB 06 Shadowfax - A Thousand Teardrops.wav
DR13 -0.17 dB -16.18 dB 07 Shadowfax - Ariki (Hummingbird Spirit).wav
DR15 -3.11 dB -21.17 dB 08 Shadowfax - Marie.wav
----------------------------------------------------------------------------------------------
Number of files: 8
Official DR value: DR14
==============================================================================================
Acoustic Guitar [6-string, 12-string], Piano – G.E. Stinson
Arranged By [Percussion Ensemble] – Emil Richards
Bass – Phil Maggini
Design – Anne Robinson (2)
Drums, Percussion – Stuart Nevitt
Engineer – Max Reese
Engineer [Assistant] – Pitt Kinsolving, Shep Lonsdale
Engineer, Mixed By – Joe Pollard
Lyricon, Soprano Saxophone – Chuck Greenberg
Photography By – Greg Edmonds
Producer – Chuck Greenberg
Written-By – Chuck Greenberg, G.E. Stinson (tracks: B3)
#777#777#777
SHADOWFAX. Nice name for a progressive rock band. At least that's how they started off. Named after Gandalf's a horse in Tolkien's The Lord Of The Rings. They are often classified as new age, but their first album really wasn't, it was rather quite like a more rocking version of OREGON and had a mixture of hard and soft songs. And really their latter albums weren't completely although they lost some of their harder edge and devoted themselves to more mellow fair.
Three of the founding members actually got together four years earlier in 1972, CHUCK GREENBERG - winds, G.E. STINSON - guitars, and PHIL MAGGINI - bass. DOUG MALUCHNIK joined on keyboards in 1973 and finally STUART NEVITT, who had worked with MALUCHNIK, came along in 1974 for drums/percussion and the ensemble was complete. Their first album, "Watercourse Way", was recorded in 1975 and released in 1976 on the ABC/Passport label. This album may not have been well know among progressive music fans, but with its spectacular cover art and well crafted music, it was a treasured item in the collections of those that knew them at the time. So much so that it was commented on in the CD liner notes of the re-release that fans were always showing up with well worn copies of the album requesting new versions be made available.
The band disappeared for a few years after they debut and then resurfaced on the Windham Hill label in 1982 with a self-titled album of new material. MALUCHNIK was out but they brought in a few extra musicians who contributed additional instrumentation on various songs. In 1983 they released "Shadowdance", which saw them getting a little heavier. JARED STEWART was brought in for full time keyboards along with JAMIL SMADZINSKI, who had contributed to a couple songs on the previous albums, as a violinist for all the tracks. Once again they had several guest musicians on board. They even brought back two pieces from their first Passport albums. Next came "Dreams Of Children", 1984, which is probably the Windham Hill album that comes closest to the heaviness present in of some of the music on "Watercourse Way". DAVID LEWIS replaced their keyboardist from the last album. 1986's "Too Far To Whisper" saw the band returning to a more 'new age' style overall. The core band remained the same, except for the violin seat, filled by CHARLES BISHARAT, and had another set of special guests contributing to various tracks. They moved on to another label and cranked out five more albums.
progarchives.com
Notes
Recorded May–June 1982, Studio America, Pasadena, CA
Barcode and Other Identifiers
Matrix / Runout (Side 1): WH 1022-A SD1 1191 Au 2Emw-2
Matrix / Runout (Side 2): WH 1022-B SH4.. SLM 8264-X 1-1 4Emw4
#777Продолжительность: 00:38:41
Треклист:
A1 New Electric India 5:12
A2 Watercourse Way 5:06
A3 Ghost Bird 5:04
A4 Shadowdance 5:20
B1 Brown Rice / Karmapa Chenno 4:18
B2 Distant Voices 3:46
B3 A Song For My Brother 9:04
Код класса состояния винила: NM
Устройство воспроизведения: Marantz 6170
Головка звукоснимателя: SHURE M97xE With Jico SAS Stylus
Предварительный усилитель: Sansui 9090DB
АЦП: E-MU 0404
Программа-оцифровщик: XLD
Обработка: DeClick with iZotope RX3 & ClickRepair: Only Manual
----------------------------------------------------------------------------------------------
Analyzed folder: /Shadowfax - Shadowdance (LP)
----------------------------------------------------------------------------------------------
DR Peak RMS Filename
----------------------------------------------------------------------------------------------
DR18 -0.14 dB -21.10 dB 01 Shadowfax - LADO 1- New Electric India.wav
DR16 -4.21 dB -23.66 dB 02 Shadowfax - Watercourse Way.wav
DR13 -4.43 dB -21.07 dB 03 Shadowfax - Ghost Bird.wav
DR19 -0.22 dB -22.38 dB 04 Shadowfax - Shadowdance.wav
DR16 -0.11 dB -21.08 dB 05 Shadowfax - LADO 2- Brown Rice - Karmapa Chenno.wav
DR14 -5.34 dB -20.85 dB 06 Shadowfax - Distant Voices.wav
DR15 -0.53 dB -20.22 dB 07 Shadowfax - A Song For My Brother.wav
----------------------------------------------------------------------------------------------
Number of files: 7
Official DR value: DR16
==============================================================================================
Bass – Phil Maggini
Design – Anne Ackerman Robinson
Drums, Percussion, Marimba [Kelon] – Stuart Nevitt
Engineer [Assistant] – Andy D'Addario*, Mike Gilbert*
Engineer [Recording & Mix] – Harry Andronis
Guitar [6 & 12 String] – G.E. Stinson
Lyricon, Saxophone [Tenor], Flute – Chuck Greenberg
Mastered By – Jack Hunt
Photography – Carol Sincora, John Benetti, John F. Cooper
Piano, Synthesizer – Jared Stewart
Producer – Chuck Greenberg
Violin, Violin [Baritone] – Jamii Szmadzinski
#777#777#777
Shadowdance confidently strides into the Windham Hill catalog with the showstopping New Electric India, electric guitar and thundering bass resounding. This is a slightly different approach than the bands eponymous label debut which was specifically composed to work within Windham Hill’s established acoustic sound. After the success of the first, the band was clearly given a little more freedom to follow their live sound than they dared on their original Windham Hill release. While Shadowfax has incredible depth texture and flow, Shadowdance brings dynamics and drive to the band’s gorgeous melodic sensibility.
From the opening note of New Electric India through the closing hum of the track Shadowdance, every note carries you through a churning river of sound depositing you at the end both thrilled and relaxed. Indeed, maybe the water analogy comes easily because Shadowdance has been used at the plankton exhibit at the Monterey Bay Aquarium for the last 20 years.
Side Two carries the torch with the Don Cherry-penned track Brown Rice – a standout from the live performances, and closes with the more conventional fusion track A Song for My Brother, a fan favorite.
The sound quality is again extraordinary. Ackerman once again looked to Mobile Fidelity for the mastering and RTI for the pressings. Playing the album on my current vinyl rig was a shocker: the recording is so dynamic and detailed. I’m sure that in part that’s because this album is seared into my memory from countless plays on a Maxell cassette. In 1984-85, I was an exchange student to Yugoslavia, specifically Serbia, and due to space restrictions I could only bring 10 cassettes for my year there. Shadowfax/Shadowdance was the one Windham Hill tape I brought. Truly, for me, this was a “Desert Island Disk.”
Unfortunately, Stuart Nevitt, Chuck Greenberg and Bruce Malament have all passed away.
windhaming.com
Recorded and mixed at Group IV Audio, Hollywood, CA. Additional recording at Fiddler Studio, Hollywood, CA.
07-Фев-15
Добавил альбом 1983 года
Обновите торрент-файл
Правила, инструкции, FAQ!!!
Торрент  Добавлен [02 ноя 2018, 10:50] Скачать торрент Магнет ссылка
Скачать торрент
[ Размер 16.25 КБ / Просмотров 14 ]

Статус
Проверен 
 
Размер  2.38 ГБ
Приватный: Нет (DHT включён)
.torrent скачан  2
Как залить торрент? | Как скачать Torrent? | Ошибка в торренте? Качайте магнет  


     Отправить личное сообщение
   
Страница 1 из 1
Показать сообщения за:  Поле сортировки  
Начать новую тему Ответить на тему

   Похожие торренты   Автор   Ответы   Просмотры   Последнее сообщение 
В этой теме нет новых непрочитанных сообщений. Скачать торрент Проверен (New-Age, Fusion, Fusion-Jazz-Rock) [LP] [16/44] Shadowfax - Folksongs For A Nuclear Village - 1988, FLAC (tracks+.cue)

в форуме Джаз и блюз (оцифровки), Размер: 287.65 МБ, Здоровье: 100%

Anonymous

0
4|1

2
0

28 окт 2018, 15:40

Anonymous Перейти к последнему сообщению

В этой теме нет новых непрочитанных сообщений. Скачать торрент Проверен (Fusion, Jazz-Rock, Progressive Rock) [LP] [24/48] Shadowfax - Watercourse Way - 1976, FLAC (tracks+.cue)

в форуме Джаз и блюз (оцифровки), Размер: 470.14 МБ, Здоровье: 100%

Anonymous

0
2|1

1
0

02 ноя 2018, 02:06

Anonymous Перейти к последнему сообщению

В этой теме нет новых непрочитанных сообщений. Скачать торрент Проверен (Chamber Jazz / Fusion / Jazz-Rock) [CD] Pierrot La Lune Quartet - Out of the Wood - 2014, FLAC (tracks+.cue), lossless

в форуме Jazz Fusion, Размер: 277.59 МБ, Здоровье: 100%

Anonymous

0
1|0

10
0

14 сен 2017, 21:01

Anonymous Перейти к последнему сообщению

В этой теме нет новых непрочитанных сообщений. Скачать торрент Проверен (New-Age, Fusion) [LP] [24/96] Shadowfax - Shadowfax - 1982, FLAC (tracks+.cue)

в форуме Джаз и блюз (оцифровки), Размер: 685.42 МБ, Здоровье: 100%

Anonymous

0
3|0

2
1

28 окт 2018, 12:13

Anonymous Перейти к последнему сообщению

В этой теме нет новых непрочитанных сообщений. Скачать торрент Проверен (Jazz, jazz fusion) Esperanza Spalding - Chamber Music Society - 2010, FLAC (tracks+.cue) lossless

в форуме Jazz Fusion, Размер: 303.25 МБ, Здоровье: 0%

Anonymous

0
0|0

18
0

13 сен 2017, 22:38

Anonymous Перейти к последнему сообщению



Сейчас этот форум просматривают: нет зарегистрированных пользователей и гости: 0


Вы не можете начинать темы
Вы не можете отвечать на сообщения
Вы не можете редактировать свои сообщения
Вы не можете удалять свои сообщения
Вы не можете добавлять вложения

Перейти:  
Ресурс не предоставляет электронные версии произведений, а занимается лишь коллекционированием и каталогизацией ссылок, присылаемых и публикуемых на форуме нашими читателями. Если вы являетесь правообладателем какого-либо представленного материала и не желаете чтобы ссылка на него находилась в нашем каталоге, свяжитесь с нами и мы незамедлительно удалим её. Файлы для обмена на трекере предоставлены пользователями сайта, и администрация не несёт ответственности за их содержание. Просьба не заливать файлы, защищенные авторскими правами, а также файлы нелегального содержания!
cron