На всех торрентах на трекере установлена скидка на скачивание в размере 100 процентов(а).
 Возможность скачивания торрента НЕ зависит от ограничений при низком ратио, низком аплоаде, требуемом ратио или требуемом аплоаде.


Начать новую тему Ответить на тему
Статистика раздачи
Размер: 368.34 МБ | Добавлен: 27 май 2018, 20:19 | Скачали: 3
Сидеров: 7  [0 байт/сек]    Личеров: 18  [0 байт/сек]
Пред. тема | След. тема 

Автор
Сообщение

СообщениеДобавлено: 27 май 2018, 20:19 

Ответить с цитатой 

Инструментальная коллекция - Арфа
Жанр: new age, fusion, jazz
Носитель: CD
Страна-производитель диска (релиза): Украина
Год издания: 2002
Издатель (лейбл): Астра
Аудиокодек: FLAC (*.flac)
Тип рипа: tracks+.cue
Битрейт аудио: lossless
Продолжительность: 69:05
Источник (релизер): Собственный рип
Наличие сканов в содержимом раздачи: да
Треклист:
01. Erotica (5:44)
02. Dee (6:35)
03. Snowcars (4:31)
04. Peligroso Amor (2:46)
05. Pyramid (4:00)
06. Theme For An Angel (6:14)
07. Into The Light (4:46)
08. When Are You Coming Back (4:50)
09. Siesta (3:38)
10. Romantic (4:20)
11. Breathe Again (4:35)
12. Don't Say Goodbye (3:53)
13. Skin & Skin (3:30)
14. Canto (4:22)
15. Caricias (5:22)
Код:
Exact Audio Copy V1.3 from 2. September 2016
EAC extraction logfile from 23. May 2018, 16:04
Various / Инструментальная коллекция - Арфа
Used drive  : TEAC    CD-W524E   Adapter: 1  ID: 2
Read mode               : Secure
Utilize accurate stream : Yes
Defeat audio cache      : Yes
Make use of C2 pointers : No
Read offset correction                      : 686
Overread into Lead-In and Lead-Out          : No
Fill up missing offset samples with silence : Yes
Delete leading and trailing silent blocks   : No
Null samples used in CRC calculations       : Yes
Used interface                              : Native Win32 interface for Win NT & 2000
Gap handling                                : Appended to previous track
Used output format              : User Defined Encoder
Selected bitrate                : 896 kBit/s
Quality                         : High
Add ID3 tag                     : No
Command line compressor         : C:\Program Files\Exact Audio Copy\FLAC\FLAC.EXE
Additional command line options : -8 -V -T "ARTIST=%artist%" -T "TITLE=%title%" -T "ALBUM=%albumtitle%" -T "DATE=%year%" -T "TRACKNUMBER=%tracknr%" -T "GENRE=%genre%" -T "COMMENT=%comment%" %hascover%--picture="%coverfile%"%hascover% %source% -o %dest%
TOC of the extracted CD
     Track |   Start  |  Length  | Start sector | End sector
    ---------------------------------------------------------
        1  |  0:00.00 |  5:43.60 |         0    |    25784
        2  |  5:43.60 |  6:34.73 |     25785    |    55407
        3  | 12:18.58 |  4:30.47 |     55408    |    75704
        4  | 16:49.30 |  2:45.62 |     75705    |    88141
        5  | 19:35.17 |  4:00.32 |     88142    |   106173
        6  | 23:35.49 |  6:13.71 |    106174    |   134219
        7  | 29:49.45 |  4:45.72 |    134220    |   155666
        8  | 34:35.42 |  4:49.71 |    155667    |   177412
        9  | 39:25.38 |  3:37.72 |    177413    |   193759
       10  | 43:03.35 |  4:19.72 |    193760    |   213256
       11  | 47:23.32 |  4:34.73 |    213257    |   233879
       12  | 51:58.30 |  3:52.72 |    233880    |   251351
       13  | 55:51.27 |  3:29.71 |    251352    |   267097
       14  | 59:21.23 |  4:21.72 |    267098    |   286744
       15  | 63:43.20 |  5:22.05 |    286745    |   310899
Track  1
     Filename I:\CD_lossless_my\VA - Инструмнтальная коллекция - Арфа (2002)\01. Various - Erotica.wav
     Pre-gap length  0:00:02.00
     Peak level 78.4 %
     Extraction speed 5.0 X
     Track quality 100.0 %
     Test CRC 329012DE
     Copy CRC 329012DE
     Track not present in AccurateRip database
     Copy OK
Track  2
     Filename I:\CD_lossless_my\VA - Инструмнтальная коллекция - Арфа (2002)\02. Various - Track02.wav
     Peak level 95.5 %
     Extraction speed 5.7 X
     Track quality 100.0 %
     Test CRC CD480EE5
     Copy CRC CD480EE5
     Track not present in AccurateRip database
     Copy OK
Track  3
     Filename I:\CD_lossless_my\VA - Инструмнтальная коллекция - Арфа (2002)\03. Various - Dee.wav
     Peak level 79.1 %
     Extraction speed 5.9 X
     Track quality 100.0 %
     Test CRC 47CFB2BB
     Copy CRC 47CFB2BB
     Track not present in AccurateRip database
     Copy OK
Track  4
     Filename I:\CD_lossless_my\VA - Инструмнтальная коллекция - Арфа (2002)\04. Various - Snowcars.wav
     Peak level 90.0 %
     Extraction speed 5.8 X
     Track quality 100.0 %
     Test CRC 0EF325CC
     Copy CRC 0EF325CC
     Track not present in AccurateRip database
     Copy OK
Track  5
     Filename I:\CD_lossless_my\VA - Инструмнтальная коллекция - Арфа (2002)\05. Various - Peligroso Amor.wav
     Peak level 70.8 %
     Extraction speed 6.3 X
     Track quality 100.0 %
     Test CRC C5A753B4
     Copy CRC C5A753B4
     Track not present in AccurateRip database
     Copy OK
Track  6
     Filename I:\CD_lossless_my\VA - Инструмнтальная коллекция - Арфа (2002)\06. Various - Pyramid.wav
     Peak level 79.1 %
     Extraction speed 7.0 X
     Track quality 100.0 %
     Test CRC D11DF970
     Copy CRC D11DF970
     Track not present in AccurateRip database
     Copy OK
Track  7
     Filename I:\CD_lossless_my\VA - Инструмнтальная коллекция - Арфа (2002)\07. Various - Theme For An Angel.wav
     Peak level 98.6 %
     Extraction speed 7.0 X
     Track quality 100.0 %
     Test CRC 9F62C53A
     Copy CRC 9F62C53A
     Track not present in AccurateRip database
     Copy OK
Track  8
     Filename I:\CD_lossless_my\VA - Инструмнтальная коллекция - Арфа (2002)\08. Various - Into The Light.wav
     Peak level 99.7 %
     Extraction speed 3.2 X
     Track quality 100.0 %
     Test CRC F4765B1F
     Copy CRC F4765B1F
     Track not present in AccurateRip database
     Copy OK
Track  9
     Filename I:\CD_lossless_my\VA - Инструмнтальная коллекция - Арфа (2002)\09. Various - When Are You Coming Back.wav
     Peak level 73.5 %
     Extraction speed 3.6 X
     Track quality 100.0 %
     Test CRC 789106CF
     Copy CRC 789106CF
     Track not present in AccurateRip database
     Copy OK
Track 10
     Filename I:\CD_lossless_my\VA - Инструмнтальная коллекция - Арфа (2002)\10. Various - Romantic.wav
     Peak level 56.4 %
     Extraction speed 3.9 X
     Track quality 99.9 %
     Test CRC 8B877BA2
     Copy CRC 8B877BA2
     Track not present in AccurateRip database
     Copy OK
Track 11
     Filename I:\CD_lossless_my\VA - Инструмнтальная коллекция - Арфа (2002)\11. Various - Breathe Again.wav
     Peak level 88.1 %
     Extraction speed 7.5 X
     Track quality 100.0 %
     Test CRC 2DDD7507
     Copy CRC 2DDD7507
     Track not present in AccurateRip database
     Copy OK
Track 12
     Filename I:\CD_lossless_my\VA - Инструмнтальная коллекция - Арфа (2002)\12. Various - Don't Say Goodbye.wav
     Peak level 100.0 %
     Extraction speed 7.2 X
     Track quality 100.0 %
     Test CRC 837D48E0
     Copy CRC 837D48E0
     Track not present in AccurateRip database
     Copy OK
Track 13
     Filename I:\CD_lossless_my\VA - Инструмнтальная коллекция - Арфа (2002)\13. Various - Skin & Skin.wav
     Peak level 99.9 %
     Extraction speed 7.3 X
     Track quality 100.0 %
     Test CRC DC6AEC30
     Copy CRC DC6AEC30
     Track not present in AccurateRip database
     Copy OK
Track 14
     Filename I:\CD_lossless_my\VA - Инструмнтальная коллекция - Арфа (2002)\14. Various - Canto.wav
     Peak level 99.6 %
     Extraction speed 3.9 X
     Track quality 99.9 %
     Test CRC 19828D26
     Copy CRC 19828D26
     Track not present in AccurateRip database
     Copy OK
Track 15
     Filename I:\CD_lossless_my\VA - Инструмнтальная коллекция - Арфа (2002)\15. Various - Caricias.wav
     Peak level 91.7 %
     Extraction speed 4.4 X
     Track quality 99.9 %
     Test CRC 6D3E7CF8
     Copy CRC 6D3E7CF8
     Track not present in AccurateRip database
     Copy OK
None of the tracks are present in the AccurateRip database
No errors occurred
End of status report
---- CUETools DB Plugin V2.1.6
[CTDB TOCID: Wr_FQeOujRtl0WDV7_MOuO7ucXI-] disk not present in database
Submit result: Wr_FQeOujRtl0WDV7_MOuO7ucXI- has been uploaded
==== Log checksum 4C15705B73438E9EC58253873ADDBD30AD53B8B239AD50B9567236FF4C54F845 ====
Код:
REM GENRE Instrumental
REM DATE 2002
REM DISCID CB10310F
REM COMMENT "ExactAudioCopy v1.3"
PERFORMER "Various"
TITLE "Инструментальная коллекция - Арфа"
REM COMPOSER ""
FILE "01. Various - Erotica.flac" WAVE
  TRACK 01 AUDIO
    TITLE "Erotica"
    PERFORMER "Various"
    REM COMPOSER ""
    INDEX 01 00:00:00
FILE "02. Various - Dee.flac" WAVE
  TRACK 02 AUDIO
    TITLE "Dee"
    PERFORMER "Various"
    REM COMPOSER ""
    INDEX 01 00:00:00
FILE "03. Various - Snowcars.flac" WAVE
  TRACK 03 AUDIO
    TITLE "Snowcars"
    PERFORMER "Various"
    REM COMPOSER ""
    INDEX 01 00:00:00
FILE "04. Various - Peligroso Amor.flac" WAVE
  TRACK 04 AUDIO
    TITLE "Peligroso Amor"
    PERFORMER "Various"
    REM COMPOSER ""
    INDEX 01 00:00:00
FILE "05. Various - Pyramid.flac" WAVE
  TRACK 05 AUDIO
    TITLE "Pyramid"
    PERFORMER "Various"
    REM COMPOSER ""
    INDEX 01 00:00:00
FILE "06. Various - Theme For An Angel.flac" WAVE
  TRACK 06 AUDIO
    TITLE "Theme For An Angel"
    PERFORMER "Various"
    REM COMPOSER ""
    INDEX 01 00:00:00
FILE "07. Various - Into The Light.flac" WAVE
  TRACK 07 AUDIO
    TITLE "Into The Light"
    PERFORMER "Various"
    REM COMPOSER ""
    INDEX 01 00:00:00
FILE "08. Various - When Are You Coming Back.flac" WAVE
  TRACK 08 AUDIO
    TITLE "When Are You Coming Back"
    PERFORMER "Various"
    REM COMPOSER ""
    INDEX 01 00:00:00
FILE "09. Various - Siesta.flac" WAVE
  TRACK 09 AUDIO
    TITLE "Siesta"
    PERFORMER "Various"
    REM COMPOSER ""
    INDEX 01 00:00:00
FILE "10. Various - Romantic.flac" WAVE
  TRACK 10 AUDIO
    TITLE "Romantic"
    PERFORMER "Various"
    REM COMPOSER ""
    INDEX 01 00:00:00
FILE "11. Various - Breathe Again.flac" WAVE
  TRACK 11 AUDIO
    TITLE "Breathe Again"
    PERFORMER "Various"
    REM COMPOSER ""
    INDEX 01 00:00:00
FILE "12. Various - Don't Say Goodbye.flac" WAVE
  TRACK 12 AUDIO
    TITLE "Don't Say Goodbye"
    PERFORMER "Various"
    REM COMPOSER ""
    INDEX 01 00:00:00
FILE "13. Various - Skin & Skin.flac" WAVE
  TRACK 13 AUDIO
    TITLE "Skin & Skin"
    PERFORMER "Various"
    REM COMPOSER ""
    INDEX 01 00:00:00
FILE "14. Various - Canto.flac" WAVE
  TRACK 14 AUDIO
    TITLE "Canto"
    PERFORMER "Various"
    REM COMPOSER ""
    INDEX 01 00:00:00
FILE "15. Various - Caricias.flac" WAVE
  TRACK 15 AUDIO
    TITLE "Caricias"
    PERFORMER "Various"
    REM COMPOSER ""
    INDEX 01 00:00:00
Код:
AUDIOCHECKER v2.0 beta (build 457) - by Dester - opdester@freemail.hu
~~~~~~~~~~~~~~~~~~~~~~~~~~~~~~~~~~
-=== DO NOT EDIT THIS FILE! ===-
Path: ...\VA - Инструмнтальная коллекция - Арфа (2002)
01 -=- 01. Various - Erotica.flac -=- MPEG (92%)
02 -=- 02. Various - Dee.flac -=- MPEG (95%)
03 -=- 03. Various - Snowcars.flac -=- MPEG (95%)
04 -=- 04. Various - Peligroso Amor.flac -=- MPEG (93%)
05 -=- 05. Various - Pyramid.flac -=- MPEG (100%)
06 -=- 06. Various - Theme For An Angel.flac -=- ERROR
07 -=- 07. Various - Into The Light.flac -=- MPEG (95%)
08 -=- 08. Various - When Are You Coming Back.flac -=- MPEG (90%)
09 -=- 09. Various - Siesta.flac -=- MPEG (97%)
10 -=- 10. Various - Romantic.flac -=- MPEG (95%)
11 -=- 11. Various - Breathe Again.flac -=- MPEG (95%)
12 -=- 12. Various - Don't Say Goodbye.flac -=- MPEG (92%)
13 -=- 13. Various - Skin & Skin.flac -=- MPEG (95%)
14 -=- 14. Various - Canto.flac -=- MPEG (91%)
15 -=- 15. Various - Caricias.flac -=- MPEG (95%)
Summary 5,71% CDDA
170970756
Доп. информация: https://www.discogs.com/release/12043314
Качество исходного материала - "Маємо те що маємо (Что имеем то имеем)" (см. лог Audiochecker)
Правила, инструкции, FAQ!!!
Торрент  Добавлен [27 май 2018, 20:19] Скачать торрент Магнет ссылка
Скачать торрент
[ Размер 16.23 КБ / Просмотров 98 ]

Статус
Проверен 
 
Размер  368.34 МБ
Приватный: Нет (DHT включён)
.torrent скачан  3
Как залить торрент? | Как скачать Torrent? | Ошибка в торренте? Качайте магнет  


     Отправить личное сообщение
   
Страница 1 из 1
Показать сообщения за:  Поле сортировки  
Начать новую тему Ответить на тему

   Похожие торренты   Автор   Ответы   Просмотры   Последнее сообщение 
В этой теме нет новых непрочитанных сообщений. Скачать торрент Проверен (New-Age/Fusion/Chamber jazz/Fusion-Jazz-Rock) [LP] [24/96] Shadowfax - Коллекция (3 LP) - 76,82,83, FLAC (tracks+.cue)

в форуме Джаз и блюз (оцифровки), Размер: 2.38 ГБ, Здоровье: 100%

Anonymous

0
7|6

14
2

02 ноя 2018, 10:50

Anonymous Перейти к последнему сообщению

В этой теме нет новых непрочитанных сообщений. Скачать торрент Проверен (Instrumental (Арфа)) Amy Shreve - Peace In The Puzzle - 2002, FLAC (image+.cue), lossless

в форуме Instrumental/New Age/Meditative/Relax, Размер: 146.41 МБ, Здоровье: 100%

Anonymous

0
2|0

46
1

06 янв 2017, 21:33

Anonymous Перейти к последнему сообщению

В этой теме нет новых непрочитанных сообщений. Скачать торрент Проверен (Progressive rock/Jazz Rock/Fusion) Iconoclasta - Коллекция 1983-2002 (11 альбомов), MP3 (tracks), 192-320 kbps

в форуме Progressive & Art-Rock, Размер: 1016.12 МБ, Здоровье: 100%

Anonymous

0
9|3

38
0

26 сен 2017, 20:51

Anonymous Перейти к последнему сообщению

В этой теме нет новых непрочитанных сообщений. Скачать торрент Проверен (Fusion, Smooth Jazz, Contemporary jazz) Tal Babitzky - Internal Voice - 2002, FLAC (tracks+.cue), lossless

в форуме Jazz Fusion, Размер: 341.49 МБ, Здоровье: 0%

Anonymous

0
0|0

40
0

14 сен 2017, 19:50

Anonymous Перейти к последнему сообщению

В этой теме нет новых непрочитанных сообщений. Скачать торрент Проверен (Jazz Fusion, Guitar Jazz) Dominic Miller & Neil Stacey - New Dawn - 2002, FLAC (tracks+.cue), lossless

в форуме Jazz Fusion, Размер: 142.61 МБ, Здоровье: 100%

Anonymous

0
98|5

81
3

14 сен 2017, 00:13

Anonymous Перейти к последнему сообщению



Сейчас этот форум просматривают: нет зарегистрированных пользователей и гости: 0


Вы не можете начинать темы
Вы не можете отвечать на сообщения
Вы не можете редактировать свои сообщения
Вы не можете удалять свои сообщения
Вы не можете добавлять вложения

Перейти:  
Ресурс не предоставляет электронные версии произведений, а занимается лишь коллекционированием и каталогизацией ссылок, присылаемых и публикуемых на форуме нашими читателями. Если вы являетесь правообладателем какого-либо представленного материала и не желаете чтобы ссылка на него находилась в нашем каталоге, свяжитесь с нами и мы незамедлительно удалим её. Файлы для обмена на трекере предоставлены пользователями сайта, и администрация не несёт ответственности за их содержание. Просьба не заливать файлы, защищенные авторскими правами, а также файлы нелегального содержания!
cron