На всех торрентах на трекере установлена скидка на скачивание в размере 100 процентов(а).
 Возможность скачивания торрента НЕ зависит от ограничений при низком ратио, низком аплоаде, требуемом ратио или требуемом аплоаде.


Начать новую тему Ответить на тему
Статистика раздачи
Размер: 745.17 МБ | Добавлен: 30 ноя 2015, 23:39 | Скачали: 1
Сидеров: 4  [0 байт/сек]    Личеров: 1  [0 байт/сек]
Пред. тема | След. тема 

Автор
Сообщение

СообщениеДобавлено: 30 ноя 2015, 23:39 

Ответить с цитатой 

Патрик и его друзья / Patrick and Friends (2009) Диск 2 и 3 DVDRip

Русское название: Патрик и его друзья
Оригинальное название: Patrick and Friends
Год выпуска: 2009
Выпущено: фирма KS Kids (Китай)
Жанр: Детский, Развивающий

Перевод: Одноголосый закадровый, профессиональный
Участники: Патрик, Вейн, Сэм, Бобби, Иван, Мими, Джулия

Описание фильма:
Обучающий мультфильм "Патрик и его друзья" создан специально для малышей от 12 месяцев. В видео сюжетах учитывается то, что малыши такого возраста еще не могут сконцентрировать внимание на картинке, содержащей много предметов, поэтому действие происходит на белом фоне и не содержит мелких деталей. Качественное трехмерное изображение персонажей, приятный голос диктора, занимательные простые сюжеты обязательно понравятся малышу. Ребенок познакомится с симпатичной собачкой Патриком и его друзьями, с которыми происходят интересные истории, каждая из которых в простой форме даст понятие малышу о свойствах предметов, играх, взаимоотношениях и качествах.

Продолжительность: 01:17:10 (~12 Х 6мин)
Качество видео: DVDRip

Видеокодек: Xvid
Битрейт видео: ~1085 kb/s
Размер кадра: 640х480
Аудио #1: [Русский] MP3 2 ch, 128 kb/s
Аудио #2: [Английский] MP3 2 ch, 128 kb/s
Диск 2 - Воспитание
1. Друзья помогают друг другу - Friends Help Each Other
2. Делимся с друзьями - Share
3. Спасибо и пожалуйста - Please And Thank You
4. Мими заболела - Mi Mi Is Sick
5. Извинение - Sorry
6. Смелость - Courage
Диск 3- Познание
1. Музыка - Music
2. Рисование - Drawing
3. Будь в форме - Get In Shape
4. Где твои вещи - Where Are Your Things
5. Природа - Environment
6. У каждого есть мечта - Everyone A Dream
Формат : AVI
Формат/Информация : Audio Video Interleave
Размер файла : 62,0 Мбайт
Продолжительность : 6 м. 23 с.
Общий поток : 1356 Кбит/сек
Название фильма : Patrick and friends D2_Vospitanie_03 Spasibo i Pogalysta
Программа кодирования : FairUse Wizard - http://fairusewizard.com
Правообладатель : Olu6ka

Видео
Идентификатор : 0
Формат : MPEG-4 Visual
Профиль формата : Advanced Simple@L5
Параметр BVOP формата : 1
Параметр QPel формата : Нет
Параметр GMC формата : Без точки перехода
Параметр матрицы формата : Выборочная
Идентификатор кодека : XVID
Идентификатор кодека/Подсказка : XviD
Продолжительность : 6 м. 23 с.
Битрейт : 1085 Кбит/сек
Ширина : 640 пикселей
Высота : 480 пикселей
Соотношение сторон : 4:3
Частота кадров : 25,000 кадров/сек
Цветовое пространство : YUV
Субдискретизация насыщенности : 4:2:0
Битовая глубина : 8 бит
Тип развёртки : Прогрессивная
Метод сжатия : С потерями
Бит/(Пиксели*Кадры) : 0.141
Размер потока : 49,6 Мбайт (80%)
Библиотека кодирования : XviD 64

Аудио #1
Идентификатор : 1
Формат : MPEG Audio
Версия формата : Version 1
Профиль формата : Layer 3
Режим : Joint stereo
Идентификатор кодека : 55
Идентификатор кодека/Подсказка : MP3
Продолжительность : 6 м. 23 с.
Вид битрейта : Постоянный
Битрейт : 128 Кбит/сек
Каналы : 2 канала
Частота : 48,0 КГц
Метод сжатия : С потерями
Размер потока : 5,85 Мбайт (9%)
Выравнивание : Соединение по промежуткам
Продолжительность промежутка : 40 мс. (1,00 видеокадр)
Время предзагрузки промежутка : 504 мс.

Аудио #2
Идентификатор : 2
Формат : MPEG Audio
Версия формата : Version 1
Профиль формата : Layer 3
Режим : Joint stereo
Расширение режима : MS Stereo
Идентификатор кодека : 55
Идентификатор кодека/Подсказка : MP3
Продолжительность : 6 м. 23 с.
Вид битрейта : Постоянный
Битрейт : 128 Кбит/сек
Каналы : 2 канала
Частота : 48,0 КГц
Метод сжатия : С потерями
Размер потока : 5,85 Мбайт (9%)
Выравнивание : Соединение по промежуткам
Продолжительность промежутка : 40 мс. (1,00 видеокадр)
Время предзагрузки промежутка : 504 мс.
Скриншоты:
Правила, инструкции, FAQ!!!
Торрент  Добавлен [30 ноя 2015, 23:39] Скачать торрент Магнет ссылка
Скачать торрент
[ Размер 16.43 КБ / Просмотров 32 ]

Статус
Проверен 
 
Размер  745.17 МБ
Приватный: Нет (DHT включён)
.torrent скачан  1
Как залить торрент? | Как скачать Torrent? | Ошибка в торренте? Качайте магнет  


     Отправить личное сообщение
   
Страница 1 из 1
Показать сообщения за:  Поле сортировки  
Начать новую тему Ответить на тему

   Похожие торренты   Автор   Ответы   Просмотры   Последнее сообщение 
В этой теме нет новых непрочитанных сообщений. Скачать торрент Проверен Мои друзья Тигруля и Винни: Лучшие друзья / My Friends Tigger and Pooh: everyone is special (2010) [8 серий] DVDRip

в форуме Развивающее Видео для детей, Размер: 1.37 ГБ, Здоровье: 83%

Anonymous

0
5|6

143
1

30 ноя 2015, 22:53

Anonymous Перейти к последнему сообщению

В этой теме нет новых непрочитанных сообщений. Скачать торрент Книга Руфь: Путешествие веры / The Book Of Ruth Journey Of Faith (Стивен Патрик Волкер / Stephen Patrick Walker) [2009, США, Драма, DVDRip]

в форуме Драмы, Мелодрамы, Размер: 738.11 МБ, Здоровье: 100%

Anonymous

0
7|2

165
1

14 апр 2014, 09:29

Anonymous Перейти к последнему сообщению

В этой теме нет новых непрочитанных сообщений. Скачать торрент Проверен Мои Друзья Тигруля и Винни : Сказка на ночь / My Friends Tigger & Pooh: Bedtime with Pooh (2009) DVDRip

в форуме Развивающее Видео для детей, Размер: 1.2 ГБ, Здоровье: 83%

Anonymous

0
5|6

100
1

30 ноя 2015, 22:58

Anonymous Перейти к последнему сообщению

В этой теме нет новых непрочитанных сообщений. Скачать торрент Проверен (House) Patrick Cash (Patrick Ca$h, Патрик Кэш) - Alarm - 2012, MP3, 320 kbps

в форуме House, Размер: 111.62 МБ, Здоровье: 100%

Гость

0
327|14

350
11

07 фев 2015, 13:23

Гость Перейти к последнему сообщению

В этой теме нет новых непрочитанных сообщений. Скачать торрент Проверен Patrick Lee / Патрик Ли - Travis Chase / Трэвис Чейз [2009-2011, FB2, RUS]

в форуме Фантастика, фэнтези, Размер: 4.17 МБ, Здоровье: 100%

Anonymous

0
4|0

43
0

12 июн 2017, 22:11

Anonymous Перейти к последнему сообщению



Сейчас этот форум просматривают: нет зарегистрированных пользователей и гости: 1


Вы не можете начинать темы
Вы не можете отвечать на сообщения
Вы не можете редактировать свои сообщения
Вы не можете удалять свои сообщения
Вы не можете добавлять вложения

Перейти:  
Ресурс не предоставляет электронные версии произведений, а занимается лишь коллекционированием и каталогизацией ссылок, присылаемых и публикуемых на форуме нашими читателями. Если вы являетесь правообладателем какого-либо представленного материала и не желаете чтобы ссылка на него находилась в нашем каталоге, свяжитесь с нами и мы незамедлительно удалим её. Файлы для обмена на трекере предоставлены пользователями сайта, и администрация не несёт ответственности за их содержание. Просьба не заливать файлы, защищенные авторскими правами, а также файлы нелегального содержания!
cron