На всех торрентах на трекере установлена скидка на скачивание в размере 100 процентов(а).
 Возможность скачивания торрента НЕ зависит от ограничений при низком ратио, низком аплоаде, требуемом ратио или требуемом аплоаде.


Начать новую тему Ответить на тему
Статистика раздачи
Размер: 1.16 ГБ | Добавлен: 24 июл 2013, 22:13 | Скачали: 0
Сидеров: 1  [0 байт/сек]    Личеров: 0  [0 байт/сек]
Пред. тема | След. тема 

Автор
Сообщение

СообщениеДобавлено: 24 июл 2013, 22:13 

Ответить с цитатой 

Страна: Индия
Жанр: Боевик, криминал
Год выпуска: 2013
Продолжительность: 02:23:16

Перевод: Любительский одноголосый
Cубтитры: только на песни
Режиссер: Санджай Гупта / Sanjay Gupta

В ролях: Джон Абрахам, Анил Капур, Тусшар Капур, Кангана Ранаут, Сону Суд, Манодж Баджпаи, Джеки Шрофф, Ронит Рой, Махеш Манджрекар, Сиддхант Капур, Ранджит, Санджив Чадда, Раджу Кхер, Ариф Закария, Четан Хансрадж, Каран Патель, Винит Шарма

Описание: Этот фильм - история об обычном молодом человеке Манья (Джон Абрахам), которого ложно обвинили в убийстве и приговорили к пожизненному заключению. Но Манья сбегает из тюрьмы и возвращается в Бомбей. Здесь он решает развязать свое господство террора и в этом процессе сталкивается с самыми влиятельными братьями-гангстерами Дилаваром Хаксаром (Сону Суд) и Зубайром Хаксаром (Манодж Баджпаи). В мгновение ока Манья становится Доном Бомбея и правительство посылает инспектора Афака Баграна(Анил Капур) положить ему конец.
Как это происходит остальная часть истории...



Сэмпл: http://www.youtube.com/watch?v=aNWvy8ifHX8

Качество видео: DVDRip
Формат видео: AVI

Видео: DivX, 616x240, (2.545) at, 29.970 fps, 1 180 Kbps
Аудио: MPEG Audio, 2 channels, 44.1 KHzat, 128 Kbps

General
Complete name
Format : AVI
Format/Info : Audio Video Interleave
Format profile : OpenDML
File size : 1.16 GiB
Duration : 2h 3mn
Overall bit rate : 1 337 Kbps
Writing library : MPlayer

Video
Format : MPEG-4 Visual
Format profile : Simple@L1
Format settings, BVOP : No
Format settings, QPel : No
Format settings, GMC : No warppoints
Format settings, Matrix : Default
Codec ID : DX50
Codec ID/Hint : DivX 5
Duration : 2h 3mn
Bit rate : 1 180 Kbps
Width : 616 pixels
Height : 240 pixels
Display aspect ratio : 2.545
Frame rate : 29.970 fps
Resolution : 24 bits
Colorimetry : 4:2:0
Scan type : Progressive
Bits/(Pixel*Frame) : 0.266
Stream size : 1.02 GiB (88%)
Writing library : Lavc53.8.0

Audio
Format : MPEG Audio
Format version : Version 1
Format profile : Layer 3
Codec ID : 55
Codec ID/Hint : MP3
Bit rate mode : Constant
Bit rate : 128 Kbps
Channel(s) : 2 channels
Sampling rate : 44.1 KHz
Resolution : 16 bits
Stream size : 131 MiB (11%)
Alignment : Split accross interleaves
Interleave, duration : 500 ms (14.98 video frames)
Interleave, preload duration : 500 ms

Правила, инструкции, FAQ!!!
Торрент  Добавлен [24 июл 2013, 22:13] Скачать торрент Магнет ссылка
Скачать торрент
[ Размер 11.98 КБ / Просмотров 20 ]

Статус  
 
Размер  1.16 ГБ
Приватный: Нет (DHT включён)
.torrent скачан  0
Как залить торрент? | Как скачать Torrent? | Ошибка в торренте? Качайте магнет  


     Отправить личное сообщение
   
Страница 1 из 1
Показать сообщения за:  Поле сортировки  
Начать новую тему Ответить на тему

   Похожие торренты   Автор   Ответы   Просмотры   Последнее сообщение 
В этой теме нет новых непрочитанных сообщений. Скачать торрент Проверен (Blues / Hard / Punk Rock) Speakeasy Shootout - Speakeasy Shootout - 2016, MP3, 320 kbps

в форуме Classic Rock & Hard Rock, Размер: 96.25 МБ, Здоровье: 0%

Anonymous

0
0|0

19
0

13 ноя 2016, 15:55

Anonymous Перейти к последнему сообщению

В этой теме нет новых непрочитанных сообщений. Закрыто правообладателем Перестрелка / Free Fire (2016) HDRip | iTunes Данный торрент является блокированным, причина: Закрыто правообладателем

в форуме Боевики, Размер: 1.4 ГБ, Здоровье: 100%

Гость

0
466|71

340
594

30 июл 2017, 12:40

Гость Перейти к последнему сообщению

В этой теме нет новых непрочитанных сообщений. Скачать торрент Проверен Перестрелка / Free Fire (2016) BDRip 1080p | iTunes

в форуме 720p | 1080p, Размер: 7.22 ГБ, Здоровье: 100%

Гость

0
165|104

252
197

08 июл 2017, 22:41

Гость Перейти к последнему сообщению

В этой теме нет новых непрочитанных сообщений. Скачать торрент Соперники на войне: Перестрелка / Rivals at war: Firefight (2014) Android

в форуме Android игры, Размер: 49.95 МБ, Здоровье: 100%

Anonymous

0
1|0

85
0

21 фев 2014, 13:10

Anonymous Перейти к последнему сообщению

В этой теме нет новых непрочитанных сообщений. Скачать торрент Проверен Перестрелка / Free Fire (Бен Уитли / Ben Wheatley) [2016, Великобритания, Боевик, триллер, криминал, WEB-DLRip] Dub (iTunes)

в форуме Фильмы 2016-2017, Размер: 1.46 ГБ, Здоровье: 0%

Anonymous

0
0|0

27
0

03 фев 2018, 20:23

Anonymous Перейти к последнему сообщению



Сейчас этот форум просматривают: нет зарегистрированных пользователей и гости: 0


Вы не можете начинать темы
Вы не можете отвечать на сообщения
Вы не можете редактировать свои сообщения
Вы не можете удалять свои сообщения
Вы не можете добавлять вложения

Перейти:  
Ресурс не предоставляет электронные версии произведений, а занимается лишь коллекционированием и каталогизацией ссылок, присылаемых и публикуемых на форуме нашими читателями. Если вы являетесь правообладателем какого-либо представленного материала и не желаете чтобы ссылка на него находилась в нашем каталоге, свяжитесь с нами и мы незамедлительно удалим её. Файлы для обмена на трекере предоставлены пользователями сайта, и администрация не несёт ответственности за их содержание. Просьба не заливать файлы, защищенные авторскими правами, а также файлы нелегального содержания!
cron