На всех торрентах на трекере установлена скидка на скачивание в размере 100 процентов(а).
 Возможность скачивания торрента НЕ зависит от ограничений при низком ратио, низком аплоаде, требуемом ратио или требуемом аплоаде.


Начать новую тему Ответить на тему
Статистика раздачи
Размер: 2.39 ГБ | Добавлен: 28 окт 2013, 09:57 | Скачали: 1
Сидеров: 12  [0 байт/сек]    Личеров: 8  [0 байт/сек]
Пред. тема | След. тема 

Автор
Сообщение

СообщениеДобавлено: 28 окт 2013, 09:57 

Ответить с цитатой 

Pink - iTunes Festival (2012) WEBRip

Исполнитель: Pink
Песня: iTunes Festival
Год выпуска: 2012
Жанр: Pop, Rock
Продолжительность: 01:13:09

Описание:
Музыкальный фестиваль iTunes Festival проходил с первого по тридцатое сентября. Концерты каждый день транслировались через iTunes.

Треклист:
1 - 00:00 Are we all we are
2 - 05:02 How come you're not here
3 - 08:36 U+ Ur hand
4 - 12:46 True love
5 - 17:00 The Truth about love
6 - 21:29 Just like a pill
7 - 25:41 Leave me alone
8 - 29:14 Family portrait
9 - 34:06 Who knew
10 - 39:14 Dear mr. president
11 - 45:16 Fuckin' perfect
12 - 49:48 Try
13 - 54:09 Funhouse
14 - 58:11 Sober
15 - 1:02:57 Blow Me (One Last Kiss)
16 - 1:08:03 So what

Видеокодек: MPEG-4 AVC/H.264
Битрейт видео: 4.496 kbps avg, ~ 0.087 bit.pixel
Размер кадра: 1920:1080 (16:9), 25.000fps
Качество видео: WEBRip
Аудиокодек: AAC, 2 ch, stereo
Битрейт аудио: 152 Kbps avg
Общее
Полное имя : E:\Интернет\Pink - iTunes Festival 2012.mp4
Формат : MPEG-4
Профиль формата : Base Media
Идентификатор кодека : isom
Размер файла : 2,39 Гбайт
Продолжительность : 1 ч. 13 м.
Общий поток : 4684 Кбит/сек
Дата кодирования : UTC 2013-01-19 15:00:41
Дата пометки : UTC 2013-01-19 15:00:41
Программа кодирования : Lavf54.63.104

Видео
Идентификатор : 1
Формат : AVC
Формат/Информация : Advanced Video Codec
Профиль формата :
Параметр CABAC формата : Да
Параметр ReFrames формата : 1 кадр
Идентификатор кодека : avc1
Идентификатор кодека/Информация : Advanced Video Coding
Продолжительность : 1 ч. 13 м.
Вид битрейта : Переменный
Битрейт : 4496 Кбит/сек
Ширина : 1920 пикс.
Высота : 1080 пикс.
Соотношение сторон : 16:9
Режим частоты кадров : Постоянный
Частота кадров : 25,000 кадр/сек
Цветовое пространство : YUV
Подвыборка цветности : 4:2:0
Битовая глубина : 8 бит
Тип развёртки : Прогрессивная
Бит/(Пиксели*Кадры) : 0.087
Размер потока : 2,31 Гбайт (97%)
Библиотека кодирования : x264 core 129
Настройки программы : cabac=1 / ref=1 / deblock=1:0:0 / analyse=0x1:0x131 / me=dia / subme=2 / psy=1 / psy_rd=1.00:0.00 / mixed_ref=0 / me_range=16 / chroma_me=1 / trellis=0 / 8x8dct=0 / cqm=0 / deadzone=21,11 / fast_pskip=1 / chroma_qp_offset=0 / threads=2 / lookahead_threads=1 / sliced_threads=0 / nr=0 / decimate=1 / interlaced=0 / bluray_compat=0 / constrained_intra=0 / bframes=0 / weightp=2 / keyint=250 / keyint_min=25 / scenecut=40 / intra_refresh=0 / rc_lookahead=40 / rc=abr / mbtree=1 / bitrate=4496 / ratetol=1.0 / qcomp=0.60 / qpmin=10 / qpmax=51 / qpstep=4 / ip_ratio=1.41 / aq=1:1.00
Дата кодирования : UTC 2013-01-19 15:00:41
Дата пометки : UTC 2013-01-19 15:00:41

Аудио
Идентификатор : 2
Формат : AAC
Формат/Информация : Advanced Audio Codec
Профиль формата : LC
Идентификатор кодека : 40
Продолжительность : 1 ч. 13 м.
Вид битрейта : Переменный
Битрейт : 152 Кбит/сек
Максимальный битрейт : 176,4 Кбит/сек
Каналы : 2 канала
Расположение каналов : Front: L R
Частота : 44,1 КГц
Метод сжатия : С потерями
Размер потока : 79,5 Мбайт (3%)
Дата кодирования : UTC 2013-01-19 15:00:41
Дата пометки : UTC 2013-01-19 15:00:41
Скриншоты:


Хорошего настроения и

Правила, инструкции, FAQ!!!
Торрент  Добавлен [28 окт 2013, 09:57] Скачать торрент Магнет ссылка
Скачать торрент
[ Размер 12.66 КБ / Просмотров 24 ]

Статус  
 
Размер  2.39 ГБ
Приватный: Нет (DHT включён)
.torrent скачан  1
Как залить торрент? | Как скачать Torrent? | Ошибка в торренте? Качайте магнет  


     Отправить личное сообщение
   
Страница 1 из 1
Показать сообщения за:  Поле сортировки  
Начать новую тему Ответить на тему

   Похожие торренты   Автор   Ответы   Просмотры   Последнее сообщение 
В этой теме нет новых непрочитанных сообщений. Скачать торрент Проверен OneRepublic - Live at iTunes Festival (19.09.2012) [2012, Pop/Rock, WEBRip 1080p]

в форуме Концерты (HD-Video), Размер: 3.53 ГБ, Здоровье: 100%

Гость

0
16|4

155
1

01 май 2015, 19:58

Гость Перейти к последнему сообщению

В этой теме нет новых непрочитанных сообщений. Скачать торрент Проверен Haim - Live at iTunes Festival (26.09.2012) [2012, Indie Folk, WEBRip 1080p]

в форуме Концерты (HD-Video), Размер: 2.79 ГБ, Здоровье: 100%

Anonymous

0
3|1

62
0

23 окт 2016, 12:25

Anonymous Перейти к последнему сообщению

В этой теме нет новых непрочитанных сообщений. Скачать торрент Проверен Jake Bugg - Live at iTunes Festival (11.09.2012) [2012, Folk, Country, WEBRip 1080p]

в форуме Концерты (HD-Video), Размер: 2.3 ГБ, Здоровье: 100%

Anonymous

0
12|0

15
1

23 окт 2016, 12:23

Anonymous Перейти к последнему сообщению

В этой теме нет новых непрочитанных сообщений. Скачать торрент Проверен The Killers - Live at iTunes Festival (11.09.2012) [2012, Indie/Pop/Soft Rock, WEBRip 1080p]

в форуме Концерты (HD-Video), Размер: 4.24 ГБ, Здоровье: 100%

Anonymous

0
5|1

77
0

23 окт 2016, 12:37

Anonymous Перейти к последнему сообщению

В этой теме нет новых непрочитанных сообщений. Скачать торрент Проверен Bat for Lashes - Live at iTunes Festival (07.09.2012) [2012, Indie, Electronic, Rock, WEBRip 1080p]

в форуме Концерты (HD-Video), Размер: 2.82 ГБ, Здоровье: 8%

Anonymous

0
2|25

62
1

23 окт 2016, 12:21

Anonymous Перейти к последнему сообщению



Сейчас этот форум просматривают: нет зарегистрированных пользователей и гости: 0


Вы не можете начинать темы
Вы не можете отвечать на сообщения
Вы не можете редактировать свои сообщения
Вы не можете удалять свои сообщения
Вы не можете добавлять вложения

Перейти:  
Ресурс не предоставляет электронные версии произведений, а занимается лишь коллекционированием и каталогизацией ссылок, присылаемых и публикуемых на форуме нашими читателями. Если вы являетесь правообладателем какого-либо представленного материала и не желаете чтобы ссылка на него находилась в нашем каталоге, свяжитесь с нами и мы незамедлительно удалим её. Файлы для обмена на трекере предоставлены пользователями сайта, и администрация не несёт ответственности за их содержание. Просьба не заливать файлы, защищенные авторскими правами, а также файлы нелегального содержания!
cron