На всех торрентах на трекере установлена скидка на скачивание в размере 100 процентов(а).
 Возможность скачивания торрента НЕ зависит от ограничений при низком ратио, низком аплоаде, требуемом ратио или требуемом аплоаде.


Начать новую тему Ответить на тему
Статистика раздачи
Размер: 8.43 ГБ | Добавлен: 01 дек 2015, 00:05 | Скачали: 15
Сидеров: 123  [0 байт/сек]    Личеров: 16  [0 байт/сек]
Пред. тема | След. тема 

Автор
Сообщение

СообщениеДобавлено: 01 дек 2015, 00:05 

Ответить с цитатой 

Почемучка. Астрономия (2013) DVBRip/WEBDL-Rip/IPTVRip (5 сезон: 26 из 26 серий) [обновляемая]

Год выпуска: 2013
Производство: Россия, ООО "Пилот Тэ Вэ", ВГТРК
Жанр: Детский, Обучающий

Перевод: Отсутствует
Режиссер: Родион Соловьёв
Участники: Сергей Лобанков, Борис Лютиков

Описание фильма:
Уже знакомые зрителям канала «Карусель» персонажи программы «Почемучка» решают изучить мир, который находится за пределами их обычного жилья — старого компьютера.
Более того, Процессор, Бит, Байт, Память, Контроллер и Вирус хотят изучить мир, находящийся за пределами планеты Земля.

Их интересуют вопросы, которые задает каждый человек, поднимая глаза к небу: «Что такое звезды?», «Как устроена Вселенная?», «Каким образом все это можно изучить?». На все эти вопросы друзьям ответит наука астрономия. С ее помощью жители компьютера постигают тайны галактики, путешествуют между звезд, проникают внутрь планет. А с помощью специальных «объяснялок» зрители еще лучше поймут то, что наши герои увидели в телескоп. Ведь компьютер с обитателями находится как раз в большой обсерватории с телескопом, и когда оттуда уходят люди, Процессор и его коллеги удовлетворяют свое любопытство.

Продолжительность: 26 x ~ 00:13:30
Качество видео: DVBRip/WEBDL-Rip

Благодарности адресуются Dmitriy40 с торрент-трекера Kinozal.tv за запись исходного материала и любезно предоставленную возможность его использования.

Видеокодек: MPEG-2
Битрейт видео: ~ 3330 kb/s (DVBRip), ~ 400 kb/s (WEBDL-Rip), ~ 3400 kb/s (IPTVRip)
Размер кадра: 720x576 (DVBRip / IPTVRip), 384x264 (WEBDL-Rip),
Аудиокодек: MP2 2 ch
Битрейт аудио: 128 - 192 kb/s , CBR
1. Как зарождалась астрономия
2. Что такое планета?
3. Адреса светил на небе
4. Созвездия
5. Меркурий
6. Что такое звезда?
7. Звёздные мерки
8. Венера
9. Двойные, кратные и переменные звёзды
10. Взрывающиеся звёзды: новые и сверхновые
11. Планета Земля
12. Астероиды
13. Астрономия в средние века
14. Марс
15. Нейтронные звёзды и чёрные дыры
16. Луна
17. Юпитер
18. Звездное небо разных широт
19. Как астрономы изучают Вселенную
20. Видимый путь Солнца: суточный и годичный
21. Сатурн
22. Какое бывает время
23. Движение Луны по небу и её фазы
24. Кольца Сатурна
25. Способы измерения времени
26. Лунные и солнечные затмения
Общее
Полное имя : D:\Torrent downloads\Multik\Pochemuchka.Astronomiya.(5.sezon).2013.DVB\Pochemuchka.Astronomiya(5.sez.1.s).Kak zarozhdalas astromoniya.2013.MPEG.DVB.mpg
Формат : MPEG-PS
Размер файла : 342 Мбайт
Продолжительность : 13 м.
Режим общего битрейта : Переменный
Общий поток : 3558 Кбит/сек

Видео
Идентификатор : 224 (0xE0)
Формат : MPEG Video
Версия формата : Version 2
Профиль формата : Main@High
Параметр BVOP формата : Да
Параметр матрицы формата : По умолчанию
Параметр GOP формата : M=3, N=15
Продолжительность : 13 м.
Вид битрейта : Переменный
Битрейт : 3295 Кбит/сек
Максимальный битрейт : 3000 Кбит/сек
Ширина : 720 пикселей
Высота : 576 пикселей
Соотношение сторон : 4:3
Частота кадров : 25,000 кадров/сек
Стандарт вещания : PAL
Цветовое пространство : YUV
Субдискретизация насыщенности : 4:2:0
Битовая глубина : 8 бит
Тип развёртки : Чересстрочная
Порядок развёртки : Верхнее поле первое
Метод сжатия : С потерями
Бит/(Пиксели*Кадры) : 0.318
TimeCode_FirstFrame : 00:00:00:00
TimeCode_Source : Group of pictures header
Размер потока : 317 Мбайт (93%)
Основные цвета : BT.709
Характеристики трансфера : BT.709
Коэффициенты матрицы : BT.709

Аудио
Идентификатор : 192 (0xC0)
Формат : MPEG Audio
Версия формата : Version 1
Профиль формата : Layer 2
Продолжительность : 13 м.
Вид битрейта : Постоянный
Битрейт : 192 Кбит/сек
Каналы : 2 канала
Частота : 44,1 КГц
Метод сжатия : С потерями
Задержка видео : -80 мс.
Размер потока : 18,5 Мбайт (5%)

Общее
Полное имя : D:\Torrent downloads\Multik\Pochemuchka.Astronomiya.(5.sezon).2013.DVB\Pochemuchka.Astronomiya(5.sez.2.s).Chto takoe planeta.2013.MPEG.DVB.mpg
Формат : MPEG-PS
Размер файла : 375 Мбайт
Продолжительность : 13 м.
Общий поток : 3922 Кбит/сек

Видео
Идентификатор : 224 (0xE0)
Формат : MPEG Video
Версия формата : Version 2
Профиль формата : Main@Main
Параметр BVOP формата : Да
Параметр матрицы формата : По умолчанию
Параметр GOP формата : M=3, N=15
Продолжительность : 13 м.
Битрейт : 3652 Кбит/сек
Максимальный битрейт : 3000 Кбит/сек
Ширина : 720 пикселей
Высота : 576 пикселей
Соотношение сторон : 4:3
Частота кадров : 25,000 кадров/сек
Стандарт вещания : PAL
Цветовое пространство : YUV
Субдискретизация насыщенности : 4:2:0
Битовая глубина : 8 бит
Тип развёртки : Чересстрочная
Порядок развёртки : Верхнее поле первое
Метод сжатия : С потерями
Бит/(Пиксели*Кадры) : 0.352
TimeCode_FirstFrame : 00:00:00:00
TimeCode_Source : Group of pictures header
Размер потока : 350 Мбайт (93%)
Основные цвета : BT.709
Характеристики трансфера : BT.709
Коэффициенты матрицы : BT.709

Аудио
Идентификатор : 192 (0xC0)
Формат : MPEG Audio
Версия формата : Version 1
Профиль формата : Layer 2
Продолжительность : 13 м.
Вид битрейта : Постоянный
Битрейт : 192 Кбит/сек
Каналы : 2 канала
Частота : 48,0 КГц
Метод сжатия : С потерями
Задержка видео : -80 мс.
Размер потока : 18,4 Мбайт (5%)

Общее
Полное имя : D:\Torrent downloads\Multik\Pochemuchka.Astronomiya.(5.sezon).2013.DVB\Pochemuchka.Astronomiya(5.sez.3.s).Adresa svetil na nebe.2013.MPEG.DVB.mpg
Формат : MPEG-PS
Размер файла : 348 Мбайт
Продолжительность : 13 м.
Режим общего битрейта : Переменный
Общий поток : 3623 Кбит/сек

Видео
Идентификатор : 224 (0xE0)
Формат : MPEG Video
Версия формата : Version 2
Профиль формата : Main@Main
Параметр BVOP формата : Да
Параметр матрицы формата : По умолчанию
Параметр GOP формата : M=3, N=15
Продолжительность : 13 м.
Вид битрейта : Переменный
Битрейт : 3359 Кбит/сек
Максимальный битрейт : 3000 Кбит/сек
Ширина : 720 пикселей
Высота : 576 пикселей
Соотношение сторон : 4:3
Частота кадров : 25,000 кадров/сек
Стандарт вещания : PAL
Цветовое пространство : YUV
Субдискретизация насыщенности : 4:2:0
Битовая глубина : 8 бит
Тип развёртки : Чересстрочная
Порядок развёртки : Верхнее поле первое
Метод сжатия : С потерями
Бит/(Пиксели*Кадры) : 0.324
TimeCode_FirstFrame : 00:00:00:00
TimeCode_Source : Group of pictures header
Размер потока : 322 Мбайт (93%)
Основные цвета : BT.709
Характеристики трансфера : BT.709
Коэффициенты матрицы : BT.709

Аудио
Идентификатор : 192 (0xC0)
Формат : MPEG Audio
Версия формата : Version 1
Профиль формата : Layer 2
Продолжительность : 13 м.
Вид битрейта : Постоянный
Битрейт : 192 Кбит/сек
Каналы : 2 канала
Частота : 48,0 КГц
Метод сжатия : С потерями
Задержка видео : -80 мс.
Размер потока : 18,4 Мбайт (5%)

Общее
Полное имя : D:\Torrent downloads\Multik\Pochemuchka.Astronomiya.(5.sezon).2013.DVB\Pochemuchka.Astronomiya(5.sez.4.s).Sozvezdiya.2013.MPEG.DVB.mpg
Формат : MPEG-PS
Размер файла : 342 Мбайт
Продолжительность : 13 м.
Режим общего битрейта : Переменный
Общий поток : 3565 Кбит/сек

Видео
Идентификатор : 224 (0xE0)
Формат : MPEG Video
Версия формата : Version 2
Профиль формата : Main@Main
Параметр BVOP формата : Да
Параметр матрицы формата : По умолчанию
Параметр GOP формата : M=3, N=15
Продолжительность : 13 м.
Вид битрейта : Переменный
Битрейт : 3302 Кбит/сек
Максимальный битрейт : 3000 Кбит/сек
Ширина : 720 пикселей
Высота : 576 пикселей
Соотношение сторон : 4:3
Частота кадров : 25,000 кадров/сек
Стандарт вещания : PAL
Цветовое пространство : YUV
Субдискретизация насыщенности : 4:2:0
Битовая глубина : 8 бит
Тип развёртки : Чересстрочная
Порядок развёртки : Верхнее поле первое
Метод сжатия : С потерями
Бит/(Пиксели*Кадры) : 0.318
TimeCode_FirstFrame : 00:00:00:00
TimeCode_Source : Group of pictures header
Размер потока : 317 Мбайт (93%)
Основные цвета : BT.709
Характеристики трансфера : BT.709
Коэффициенты матрицы : BT.709

Аудио
Идентификатор : 192 (0xC0)
Формат : MPEG Audio
Версия формата : Version 1
Профиль формата : Layer 2
Продолжительность : 13 м.
Вид битрейта : Постоянный
Битрейт : 192 Кбит/сек
Каналы : 2 канала
Частота : 44,1 КГц
Метод сжатия : С потерями
Задержка видео : -80 мс.
Размер потока : 18,4 Мбайт (5%)

Общее
Полное имя : D:\Torrent downloads\Multik\Pochemuchka.Astronomiya.(5.sezon).2013.DVB\Pochemuchka.Astronomiya(5.sez.5.s).Merkurij.2013.MPEG.DVB.mpg
Формат : MPEG-PS
Размер файла : 353 Мбайт
Продолжительность : 13 м.
Режим общего битрейта : Переменный
Общий поток : 3688 Кбит/сек

Видео
Идентификатор : 224 (0xE0)
Формат : MPEG Video
Версия формата : Version 2
Профиль формата : Main@Main
Параметр BVOP формата : Да
Параметр матрицы формата : По умолчанию
Параметр GOP формата : M=3, N=15
Продолжительность : 13 м.
Вид битрейта : Переменный
Битрейт : 3423 Кбит/сек
Максимальный битрейт : 3000 Кбит/сек
Ширина : 720 пикселей
Высота : 576 пикселей
Соотношение сторон : 4:3
Частота кадров : 25,000 кадров/сек
Стандарт вещания : PAL
Цветовое пространство : YUV
Субдискретизация насыщенности : 4:2:0
Битовая глубина : 8 бит
Тип развёртки : Чересстрочная
Порядок развёртки : Верхнее поле первое
Метод сжатия : С потерями
Бит/(Пиксели*Кадры) : 0.330
TimeCode_FirstFrame : 00:00:00:00
TimeCode_Source : Group of pictures header
Размер потока : 327 Мбайт (93%)
Основные цвета : BT.709
Характеристики трансфера : BT.709
Коэффициенты матрицы : BT.709

Аудио
Идентификатор : 192 (0xC0)
Формат : MPEG Audio
Версия формата : Version 1
Профиль формата : Layer 2
Продолжительность : 13 м.
Вид битрейта : Постоянный
Битрейт : 192 Кбит/сек
Каналы : 2 канала
Частота : 48,0 КГц
Метод сжатия : С потерями
Задержка видео : -80 мс.
Размер потока : 18,4 Мбайт (5%)

Общее
Полное имя : D:\Torrent downloads\Multik\Pochemuchka.Astronomiya.(5.sezon).2013.DVB\Pochemuchka.Astronomiya(5.sez.6.s).Chto takoe zvezda.2013.MPEG.DVB.mpg
Формат : MPEG-PS
Размер файла : 349 Мбайт
Продолжительность : 13 м.
Режим общего битрейта : Переменный
Общий поток : 3637 Кбит/сек

Видео
Идентификатор : 224 (0xE0)
Формат : MPEG Video
Версия формата : Version 2
Профиль формата : Main@Main
Параметр BVOP формата : Да
Параметр матрицы формата : По умолчанию
Параметр GOP формата : M=3, N=15
Продолжительность : 13 м.
Вид битрейта : Переменный
Битрейт : 3372 Кбит/сек
Максимальный битрейт : 3000 Кбит/сек
Ширина : 720 пикселей
Высота : 576 пикселей
Соотношение сторон : 4:3
Частота кадров : 25,000 кадров/сек
Стандарт вещания : PAL
Цветовое пространство : YUV
Субдискретизация насыщенности : 4:2:0
Битовая глубина : 8 бит
Тип развёртки : Чересстрочная
Порядок развёртки : Верхнее поле первое
Метод сжатия : С потерями
Бит/(Пиксели*Кадры) : 0.325
TimeCode_FirstFrame : 00:00:00:00
TimeCode_Source : Group of pictures header
Размер потока : 323 Мбайт (93%)
Основные цвета : BT.709
Характеристики трансфера : BT.709
Коэффициенты матрицы : BT.709

Аудио
Идентификатор : 192 (0xC0)
Формат : MPEG Audio
Версия формата : Version 1
Профиль формата : Layer 2
Продолжительность : 13 м.
Вид битрейта : Постоянный
Битрейт : 192 Кбит/сек
Каналы : 2 канала
Частота : 48,0 КГц
Метод сжатия : С потерями
Задержка видео : -80 мс.
Размер потока : 18,4 Мбайт (5%)

Общее
Полное имя : D:\Torrent downloads\Multik\Pochemuchka.Astronomiya.(5.sezon).2013.DVB\Pochemuchka.Astronomiya(5.sez.7.s).Zvjozdnye merki.2013.MPEG.DVB.mpg
Формат : MPEG-PS
Размер файла : 350 Мбайт
Продолжительность : 13 м.
Режим общего битрейта : Переменный
Общий поток : 3648 Кбит/сек

Видео
Идентификатор : 224 (0xE0)
Формат : MPEG Video
Версия формата : Version 2
Профиль формата : Main@Main
Параметр BVOP формата : Да
Параметр матрицы формата : По умолчанию
Параметр GOP формата : M=3, N=15
Продолжительность : 13 м.
Вид битрейта : Переменный
Битрейт : 3383 Кбит/сек
Максимальный битрейт : 3000 Кбит/сек
Ширина : 720 пикселей
Высота : 576 пикселей
Соотношение сторон : 4:3
Частота кадров : 25,000 кадров/сек
Стандарт вещания : PAL
Цветовое пространство : YUV
Субдискретизация насыщенности : 4:2:0
Битовая глубина : 8 бит
Тип развёртки : Чересстрочная
Порядок развёртки : Верхнее поле первое
Метод сжатия : С потерями
Бит/(Пиксели*Кадры) : 0.326
TimeCode_FirstFrame : 00:00:00:00
TimeCode_Source : Group of pictures header
Размер потока : 324 Мбайт (93%)
Основные цвета : BT.709
Характеристики трансфера : BT.709
Коэффициенты матрицы : BT.709

Аудио
Идентификатор : 192 (0xC0)
Формат : MPEG Audio
Версия формата : Version 1
Профиль формата : Layer 2
Продолжительность : 13 м.
Вид битрейта : Постоянный
Битрейт : 192 Кбит/сек
Каналы : 2 канала
Частота : 44,1 КГц
Метод сжатия : С потерями
Задержка видео : -80 мс.
Размер потока : 18,4 Мбайт (5%)

Общее
Полное имя : D:\Torrent downloads\Multik\Pochemuchka.Astronomiya.(5.sezon).2013.DVB\Pochemuchka.Astronomiya(5.sez.8.s).Venera.2013.MPEG.DVB.mpg
Формат : MPEG-PS
Размер файла : 346 Мбайт
Продолжительность : 13 м.
Режим общего битрейта : Переменный
Общий поток : 3591 Кбит/сек

Видео
Идентификатор : 224 (0xE0)
Формат : MPEG Video
Версия формата : Version 2
Профиль формата : Main@Main
Параметр BVOP формата : Да
Параметр матрицы формата : По умолчанию
Параметр GOP формата : M=3, N=15
Продолжительность : 13 м.
Вид битрейта : Переменный
Битрейт : 3328 Кбит/сек
Максимальный битрейт : 3000 Кбит/сек
Ширина : 720 пикселей
Высота : 576 пикселей
Соотношение сторон : 4:3
Частота кадров : 25,000 кадров/сек
Стандарт вещания : PAL
Цветовое пространство : YUV
Субдискретизация насыщенности : 4:2:0
Битовая глубина : 8 бит
Тип развёртки : Чересстрочная
Порядок развёртки : Верхнее поле первое
Метод сжатия : С потерями
Бит/(Пиксели*Кадры) : 0.321
TimeCode_FirstFrame : 00:00:00:00
TimeCode_Source : Group of pictures header
Размер потока : 321 Мбайт (93%)
Основные цвета : BT.709
Характеристики трансфера : BT.709
Коэффициенты матрицы : BT.709

Аудио
Идентификатор : 192 (0xC0)
Формат : MPEG Audio
Версия формата : Version 1
Профиль формата : Layer 2
Продолжительность : 13 м.
Вид битрейта : Постоянный
Битрейт : 192 Кбит/сек
Каналы : 2 канала
Частота : 44,1 КГц
Метод сжатия : С потерями
Задержка видео : -80 мс.
Размер потока : 18,5 Мбайт (5%)

Общее
Полное имя : D:\Torrent downloads\Multik\Pochemuchka.Astronomiya.(5.sezon).2013.DVB\Pochemuchka.Astronomiya(5.sez.9.s).Dvojnye, kratnye i peremennye zvjozdy.2013.MPEG.DVB.mpg
Формат : MPEG-PS
Размер файла : 342 Мбайт
Продолжительность : 13 м.
Режим общего битрейта : Переменный
Общий поток : 3619 Кбит/сек

Видео
Идентификатор : 224 (0xE0)
Формат : MPEG Video
Версия формата : Version 2
Профиль формата : Main@Main
Параметр BVOP формата : Да
Параметр матрицы формата : По умолчанию
Параметр GOP формата : M=3, N=15
Продолжительность : 13 м.
Вид битрейта : Переменный
Битрейт : 3355 Кбит/сек
Максимальный битрейт : 3000 Кбит/сек
Ширина : 720 пикселей
Высота : 576 пикселей
Соотношение сторон : 4:3
Частота кадров : 25,000 кадров/сек
Стандарт вещания : PAL
Цветовое пространство : YUV
Субдискретизация насыщенности : 4:2:0
Битовая глубина : 8 бит
Тип развёртки : Чересстрочная
Порядок развёртки : Верхнее поле первое
Метод сжатия : С потерями
Бит/(Пиксели*Кадры) : 0.324
TimeCode_FirstFrame : 00:00:00:00
TimeCode_Source : Group of pictures header
Размер потока : 317 Мбайт (93%)
Основные цвета : BT.709
Характеристики трансфера : BT.709
Коэффициенты матрицы : BT.709

Аудио
Идентификатор : 192 (0xC0)
Формат : MPEG Audio
Версия формата : Version 1
Профиль формата : Layer 2
Продолжительность : 13 м.
Вид битрейта : Постоянный
Битрейт : 192 Кбит/сек
Каналы : 2 канала
Частота : 44,1 КГц
Метод сжатия : С потерями
Задержка видео : -80 мс.
Размер потока : 18,1 Мбайт (5%)

General
Complete name : D:\Torrent downloads\Multik\Pochemuchka.Astronomiya.(5.sezon).2013.DVB\Pochemuchka.Astronomiya(5.sez.10.s).Vzryvajushhiesja zvjozdy - novye i sverhnovye.2013.MPEG.DVB.mpg
Format : MPEG-PS
File size : 323 MiB
Duration : 13mn 19s
Overall bit rate mode : Variable
Overall bit rate : 3 386 Kbps

Video
ID : 224 (0xE0)
Format : MPEG Video
Format version : Version 2
Format profile : Main@Main
Format settings, BVOP : Yes
Format settings, Matrix : Default
Format settings, GOP : M=3, N=15
Duration : 13mn 19s
Bit rate mode : Variable
Bit rate : 3 126 Kbps
Maximum bit rate : 3 000 Kbps
Width : 720 pixels
Height : 576 pixels
Display aspect ratio : 4:3
Frame rate : 25.000 fps
Standard : PAL
Color space : YUV
Chroma subsampling : 4:2:0
Bit depth : 8 bits
Scan type : Interlaced
Scan order : Top Field First
Compression mode : Lossy
Bits/(Pixel*Frame) : 0.302
Stream size : 298 MiB (92%)
Color primaries : BT.709
Transfer characteristics : BT.709
Matrix coefficients : BT.709

Audio
ID : 192 (0xC0)
Format : MPEG Audio
Format version : Version 1
Format profile : Layer 2
Duration : 13mn 19s
Bit rate mode : Constant
Bit rate : 192 Kbps
Channel(s) : 2 channels
Sampling rate : 44.1 KHz
Compression mode : Lossy
Delay relative to video : -80ms
Stream size : 18.3 MiB (6%)

General
Complete name : D:\Torrent downloads\Multik\Pochemuchka.Astronomiya.(5.sezon).2013.DVB\Pochemuchka.Astronomiya(5.sez.11.s).Planeta Zemlja.2013.MPEG.DVB.mpg
Format : MPEG-PS
File size : 326 MiB
Duration : 13mn 26s
Overall bit rate mode : Variable
Overall bit rate : 3 391 Kbps

Video
ID : 224 (0xE0)
Format : MPEG Video
Format version : Version 2
Format profile : Main@Main
Format settings, BVOP : Yes
Format settings, Matrix : Default
Format settings, GOP : M=3, N=15
Duration : 13mn 26s
Bit rate mode : Variable
Bit rate : 3 132 Kbps
Maximum bit rate : 3 000 Kbps
Width : 720 pixels
Height : 576 pixels
Display aspect ratio : 4:3
Frame rate : 25.000 fps
Standard : PAL
Color space : YUV
Chroma subsampling : 4:2:0
Bit depth : 8 bits
Scan type : Interlaced
Scan order : Top Field First
Compression mode : Lossy
Bits/(Pixel*Frame) : 0.302
Stream size : 301 MiB (92%)
Color primaries : BT.709
Transfer characteristics : BT.709
Matrix coefficients : BT.709

Audio
ID : 192 (0xC0)
Format : MPEG Audio
Format version : Version 1
Format profile : Layer 2
Duration : 13mn 26s
Bit rate mode : Constant
Bit rate : 192 Kbps
Channel(s) : 2 channels
Sampling rate : 44.1 KHz
Compression mode : Lossy
Delay relative to video : -80ms
Stream size : 18.5 MiB (6%)

General
Complete name : D:\Torrent downloads\Multik\Pochemuchka.Astronomiya.(5.sezon).2013.DVB\Pochemuchka.Astronomiya(5.sez.12.s).Asteroidy.2013.MPEG.DVB.mpg
Format : MPEG-PS
File size : 330 MiB
Duration : 12mn 59s
Overall bit rate mode : Variable
Overall bit rate : 3 549 Kbps

Video
ID : 224 (0xE0)
Format : MPEG Video
Format version : Version 2
Format profile : Main@Main
Format settings, BVOP : Yes
Format settings, Matrix : Default
Format settings, GOP : M=3, N=15
Duration : 12mn 59s
Bit rate mode : Variable
Bit rate : 3 287 Kbps
Maximum bit rate : 3 000 Kbps
Width : 720 pixels
Height : 576 pixels
Display aspect ratio : 4:3
Frame rate : 25.000 fps
Standard : PAL
Color space : YUV
Chroma subsampling : 4:2:0
Bit depth : 8 bits
Scan type : Interlaced
Scan order : Top Field First
Compression mode : Lossy
Bits/(Pixel*Frame) : 0.317
Time code of first frame : 00:00:00:00
Time code source : Group of pictures header
Stream size : 306 MiB (93%)
Color primaries : BT.709
Transfer characteristics : BT.709
Matrix coefficients : BT.709

Audio
ID : 192 (0xC0)
Format : MPEG Audio
Format version : Version 1
Format profile : Layer 2
Duration : 12mn 59s
Bit rate mode : Constant
Bit rate : 192 Kbps
Channel count : 2 channels
Sampling rate : 44.1 KHz
Compression mode : Lossy
Delay relative to video : -80ms
Stream size : 17.9 MiB (5%)

Общее
Полное имя : D:\Torrent downloads\Multik\Pochemuchka.Astronomiya.(5.sezon).2013.DVB\Pochemuchka.Astronomiya(5.sez.13.s).Astronomiya v srednie veka.2013.MPEG.DVB.mpg
Формат : MPEG-PS
Размер файла : 316 Мбайт
Продолжительность : 13 м.
Режим общего битрейта : Переменный
Общий поток : 3304 Кбит/сек

Видео
Идентификатор : 224 (0xE0)
Формат : MPEG Video
Версия формата : Version 2
Профиль формата : Main@Main
Параметр BVOP формата : Да
Параметр матрицы формата : По умолчанию
Параметр GOP формата : M=3, N=15
Продолжительность : 13 м.
Вид битрейта : Переменный
Битрейт : 3046 Кбит/сек
Максимальный битрейт : 3000 Кбит/сек
Ширина : 720 пикселей
Высота : 576 пикселей
Соотношение сторон : 4:3
Частота кадров : 25,000 кадров/сек
Стандарт вещания : PAL
Цветовое пространство : YUV
Субдискретизация насыщенности : 4:2:0
Битовая глубина : 8 бит
Тип развёртки : Чересстрочная
Порядок развёртки : Верхнее поле первое
Метод сжатия : С потерями
Бит/(Пиксели*Кадры) : 0.294
Временной код первого кадра : 00:00:00:00
Оригинал временного кода : Group of pictures header
Размер потока : 291 Мбайт (92%)
Основные цвета : BT.709
Характеристики трансфера : BT.709
Коэффициенты матрицы : BT.709

Аудио
Идентификатор : 192 (0xC0)
Формат : MPEG Audio
Версия формата : Version 1
Профиль формата : Layer 2
Продолжительность : 13 м.
Вид битрейта : Постоянный
Битрейт : 192 Кбит/сек
Каналы : 2 канала
Частота : 44,1 КГц
Метод сжатия : С потерями
Задержка видео : -80 мс.
Размер потока : 18,4 Мбайт (6%)

General
Complete name : D:\Torrent downloads\Multik\Pochemuchka.Astronomiya.(5.sezon).2013.DVB\Pochemuchka.Astronomiya(5.sez.14.s).Mars.2013.MPEG.DVB.mpg
Format : MPEG-PS
File size : 332 MiB
Duration : 13mn 29s
Overall bit rate mode : Variable
Overall bit rate : 3 439 Kbps

Video
ID : 224 (0xE0)
Format : MPEG Video
Format version : Version 2
Format profile : Main@Main
Format settings, BVOP : Yes
Format settings, Matrix : Default
Format settings, GOP : M=3, N=15
Duration : 13mn 29s
Bit rate mode : Variable
Bit rate : 3 179 Kbps
Maximum bit rate : 3 000 Kbps
Width : 720 pixels
Height : 576 pixels
Display aspect ratio : 4:3
Frame rate : 25.000 fps
Standard : PAL
Color space : YUV
Chroma subsampling : 4:2:0
Bit depth : 8 bits
Scan type : Interlaced
Scan order : Top Field First
Compression mode : Lossy
Bits/(Pixel*Frame) : 0.307
Time code of first frame : 00:00:00:00
Time code source : Group of pictures header
Stream size : 307 MiB (92%)
Color primaries : BT.709
Transfer characteristics : BT.709
Matrix coefficients : BT.709

Audio
ID : 192 (0xC0)
Format : MPEG Audio
Format version : Version 1
Format profile : Layer 2
Duration : 13mn 29s
Bit rate mode : Constant
Bit rate : 192 Kbps
Channel count : 2 channels
Sampling rate : 44.1 KHz
Compression mode : Lossy
Delay relative to video : -80ms
Stream size : 18.5 MiB (6%)

General
Complete name : D:\Torrent downloads\Multik\Pochemuchka.Astronomiya.(5.sezon).2013.DVB\Pochemuchka.Astronomiya(5.sez.15.s).Nejtronnye zvjozdy i chjornye dyry.2013.MPEG.DVB.mpg
Format : MPEG-PS
File size : 333 MiB
Duration : 13mn 26s
Overall bit rate mode : Variable
Overall bit rate : 3 463 Kbps

Video
ID : 224 (0xE0)
Format : MPEG Video
Format version : Version 2
Format profile : Main@Main
Format settings, BVOP : Yes
Format settings, Matrix : Default
Format settings, GOP : M=3, N=15
Duration : 13mn 26s
Bit rate mode : Variable
Bit rate : 3 202 Kbps
Maximum bit rate : 3 000 Kbps
Width : 720 pixels
Height : 576 pixels
Display aspect ratio : 4:3
Frame rate : 25.000 fps
Standard : PAL
Color space : YUV
Chroma subsampling : 4:2:0
Bit depth : 8 bits
Scan type : Interlaced
Scan order : Top Field First
Compression mode : Lossy
Bits/(Pixel*Frame) : 0.309
Time code of first frame : 00:00:00:00
Time code source : Group of pictures header
Stream size : 308 MiB (92%)
Color primaries : BT.709
Transfer characteristics : BT.709
Matrix coefficients : BT.709

Audio
ID : 192 (0xC0)
Format : MPEG Audio
Format version : Version 1
Format profile : Layer 2
Duration : 13mn 26s
Bit rate mode : Constant
Bit rate : 192 Kbps
Channel count : 2 channels
Sampling rate : 44.1 KHz
Compression mode : Lossy
Delay relative to video : -80ms
Stream size : 18.5 MiB (6%)

General
Complete name : D:\Torrent downloads\Multik\Pochemuchka.Astronomiya.(5.sezon).2013.DVB\Pochemuchka.Astronomiya(5.sez.16.s).Luna.2013.MPEG.DVB.mpg
Format : MPEG-PS
File size : 320 MiB
Duration : 13mn 9s
Overall bit rate mode : Variable
Overall bit rate : 3 394 Kbps

Video
ID : 224 (0xE0)
Format : MPEG Video
Format version : Version 2
Format profile : Main@Main
Format settings, BVOP : Yes
Format settings, Matrix : Default
Format settings, GOP : M=3, N=15
Duration : 13mn 9s
Bit rate mode : Variable
Bit rate : 3 135 Kbps
Maximum bit rate : 3 000 Kbps
Width : 720 pixels
Height : 576 pixels
Display aspect ratio : 4:3
Frame rate : 25.000 fps
Standard : PAL
Color space : YUV
Chroma subsampling : 4:2:0
Bit depth : 8 bits
Scan type : Interlaced
Scan order : Top Field First
Compression mode : Lossy
Bits/(Pixel*Frame) : 0.302
Time code of first frame : 00:00:00:00
Time code source : Group of pictures header
Stream size : 295 MiB (92%)
Color primaries : BT.709
Transfer characteristics : BT.709
Matrix coefficients : BT.709

Audio
ID : 192 (0xC0)
Format : MPEG Audio
Format version : Version 1
Format profile : Layer 2
Duration : 13mn 9s
Bit rate mode : Constant
Bit rate : 192 Kbps
Channel count : 2 channels
Sampling rate : 44.1 KHz
Compression mode : Lossy
Delay relative to video : -80ms
Stream size : 18.1 MiB (6%)

General
Complete name : D:\Torrent downloads\Multik\Pochemuchka.Astronomiya.(5.sezon).2013.DVB\Pochemuchka.Astronomiya(5.sez.17.s).Jupiter.2013.MPEG.DVB.mpg
Format : MPEG-PS
File size : 330 MiB
Duration : 13mn 24s
Overall bit rate mode : Variable
Overall bit rate : 3 437 Kbps

Video
ID : 224 (0xE0)
Format : MPEG Video
Format version : Version 2
Format profile : Main@Main
Format settings, BVOP : Yes
Format settings, Matrix : Default
Format settings, GOP : M=3, N=15
Duration : 13mn 24s
Bit rate mode : Variable
Bit rate : 3 177 Kbps
Maximum bit rate : 3 000 Kbps
Width : 720 pixels
Height : 576 pixels
Display aspect ratio : 4:3
Frame rate : 25.000 fps
Standard : PAL
Color space : YUV
Chroma subsampling : 4:2:0
Bit depth : 8 bits
Scan type : Interlaced
Scan order : Top Field First
Compression mode : Lossy
Bits/(Pixel*Frame) : 0.306
Time code of first frame : 00:00:00:00
Time code source : Group of pictures header
Stream size : 305 MiB (92%)
Color primaries : BT.709
Transfer characteristics : BT.709
Matrix coefficients : BT.709

Audio
ID : 192 (0xC0)
Format : MPEG Audio
Format version : Version 1
Format profile : Layer 2
Duration : 13mn 24s
Bit rate mode : Constant
Bit rate : 192 Kbps
Channel count : 2 channels
Sampling rate : 44.1 KHz
Compression mode : Lossy
Delay relative to video : -80ms
Stream size : 18.4 MiB (6%)

General
Complete name : C:\Все данные\Torrent downloads\Multik\Pochemuchka.Astronomiya.(5.sezon).2013.DVB\Pochemuchka.Astronomiya(5.sez.18.s).Zvezdnoe nebo raznyh shirot.2013.MPEG.WEB-DLRip.mpg
Format : MPEG-PS
File size : 121 MiB
Duration : 13mn 22s
Overall bit rate mode : Variable
Overall bit rate : 1 260 Kbps

Video
ID : 224 (0xE0)
Format : MPEG Video
Format version : Version 2
Format profile : Main@Main
Format settings, BVOP : Yes
Format settings, Matrix : Default
Format settings, GOP : M=3, N=15
Duration : 13mn 22s
Bit rate mode : Variable
Bit rate : 1 107 Kbps
Maximum bit rate : 400 Kbps
Width : 384 pixels
Height : 264 pixels
Display aspect ratio : 3:2
Frame rate : 25.000 fps
Standard : PAL
Color space : YUV
Chroma subsampling : 4:2:0
Bit depth : 8 bits
Scan type : Progressive
Compression mode : Lossy
Bits/(Pixel*Frame) : 0.437
Time code of first frame : 00:00:00:00
Time code source : Group of pictures header
Stream size : 106 MiB (88%)
Color primaries : BT.709
Transfer characteristics : BT.709
Matrix coefficients : BT.709

Audio
ID : 192 (0xC0)
Format : MPEG Audio
Format version : Version 1
Format profile : Layer 2
Duration : 13mn 22s
Bit rate mode : Constant
Bit rate : 128 Kbps
Channel count : 2 channels
Sampling rate : 44.1 KHz
Compression mode : Lossy
Delay relative to video : -80ms
Stream size : 12.2 MiB (10%)
General
Complete name : C:\Все данные\Torrent downloads\Multik\Pochemuchka.Astronomiya.(5.sezon).2013.DVB\Pochemuchka.Astronomiya(5.sez.19.s).Kak astronomy izuchajut Vselennuju.2013.MPEG.DVBRip.mpg
Format : MPEG-PS
File size : 357 MiB
Duration : 13mn 9s
Overall bit rate mode : Variable
Overall bit rate : 3 795 Kbps

Video
ID : 224 (0xE0)
Format : MPEG Video
Format version : Version 2
Format profile : Main@Main
Format settings, BVOP : Yes
Format settings, Matrix : Default
Format settings, GOP : M=3, N=15
Duration : 13mn 9s
Bit rate mode : Variable
Bit rate : 3 528 Kbps
Maximum bit rate : 3 000 Kbps
Width : 720 pixels
Height : 576 pixels
Display aspect ratio : 4:3
Frame rate : 25.000 fps
Standard : PAL
Color space : YUV
Chroma subsampling : 4:2:0
Bit depth : 8 bits
Scan type : Interlaced
Scan order : Top Field First
Compression mode : Lossy
Bits/(Pixel*Frame) : 0.340
Time code of first frame : 00:00:00:00
Time code source : Group of pictures header
Stream size : 332 MiB (93%)
Color primaries : BT.709
Transfer characteristics : BT.709
Matrix coefficients : BT.709

Audio
ID : 192 (0xC0)
Format : MPEG Audio
Format version : Version 1
Format profile : Layer 2
Duration : 13mn 9s
Bit rate mode : Constant
Bit rate : 192 Kbps
Channel(s) : 2 channels
Sampling rate : 44.1 KHz
Compression mode : Lossy
Delay relative to video : -80ms
Stream size : 18.1 MiB (5%)

General
Complete name : C:\Все данные\Torrent downloads\Multik\Pochemuchka.Astronomiya.(5.sezon).2013.DVB\Pochemuchka.Astronomiya(5.sez.20.s).Vidimyj put' Solnca - sutochnyj i godichnyj.2013.MPEG.DVBRip.mpg
Format : MPEG-PS
File size : 341 MiB
Duration : 13mn 22s
Overall bit rate mode : Variable
Overall bit rate : 3 565 Kbps

Video
ID : 224 (0xE0)
Format : MPEG Video
Format version : Version 2
Format profile : Main@Main
Format settings, BVOP : Yes
Format settings, Matrix : Default
Format settings, GOP : M=3, N=15
Duration : 13mn 21s
Bit rate mode : Variable
Bit rate : 3 366 Kbps
Maximum bit rate : 3 000 Kbps
Width : 720 pixels
Height : 576 pixels
Display aspect ratio : 4:3
Frame rate : 25.000 fps
Standard : PAL
Color space : YUV
Chroma subsampling : 4:2:0
Bit depth : 8 bits
Scan type : Interlaced
Scan order : Top Field First
Compression mode : Lossy
Bits/(Pixel*Frame) : 0.325
Time code of first frame : 00:00:00:00
Time code source : Group of pictures header
Stream size : 322 MiB (94%)
Color primaries : BT.709
Transfer characteristics : BT.709
Matrix coefficients : BT.709

Audio
ID : 192 (0xC0)
Format : MPEG Audio
Format version : Version 1
Format profile : Layer 2
Duration : 13mn 22s
Bit rate mode : Constant
Bit rate : 128 Kbps
Channel count : 2 channels
Sampling rate : 44.1 KHz
Compression mode : Lossy
Delay relative to video : -80ms
Stream size : 12.2 MiB (4%)

General
Complete name : C:\Все данные\Torrent downloads\Multik\Pochemuchka.Astronomiya.(5.sezon).2013.DVB\Pochemuchka.Astronomiya(5.sez.21.s).Saturn.2013.MPEG.DVBRip.mpg
Format : MPEG-PS
File size : 342 MiB
Duration : 13mn 9s
Overall bit rate mode : Variable
Overall bit rate : 3 627 Kbps

Video
ID : 224 (0xE0)
Format : MPEG Video
Format version : Version 2
Format profile : Main@Main
Format settings, BVOP : Yes
Format settings, Matrix : Default
Format settings, GOP : M=3, N=15
Duration : 13mn 9s
Bit rate mode : Variable
Bit rate : 3 363 Kbps
Maximum bit rate : 3 000 Kbps
Width : 720 pixels
Height : 576 pixels
Display aspect ratio : 4:3
Frame rate : 25.000 fps
Standard : PAL
Color space : YUV
Chroma subsampling : 4:2:0
Bit depth : 8 bits
Scan type : Interlaced
Scan order : Top Field First
Compression mode : Lossy
Bits/(Pixel*Frame) : 0.324
Time code of first frame : 00:00:00:00
Time code source : Group of pictures header
Stream size : 317 MiB (93%)
Color primaries : BT.709
Transfer characteristics : BT.709
Matrix coefficients : BT.709

Audio
ID : 192 (0xC0)
Format : MPEG Audio
Format version : Version 1
Format profile : Layer 2
Duration : 13mn 9s
Bit rate mode : Constant
Bit rate : 192 Kbps
Channel(s) : 2 channels
Sampling rate : 44.1 KHz
Compression mode : Lossy
Delay relative to video : -80ms
Stream size : 18.1 MiB (5%)

General
Complete name : C:\Все данные\Torrent downloads\Multik\Pochemuchka.Astronomiya.(5.sezon).2013.DVB\Pochemuchka.Astronomiya(5.sez.22.s).Kakoe byvaet vremja.2013.MPEG.DVBRip.mpg
Format : MPEG-PS
File size : 351 MiB
Duration : 13mn 19s
Overall bit rate mode : Variable
Overall bit rate : 3 679 Kbps

Video
ID : 224 (0xE0)
Format : MPEG Video
Format version : Version 2
Format profile : Main@Main
Format settings, BVOP : Yes
Format settings, Matrix : Default
Format settings, GOP : M=3, N=15
Duration : 13mn 19s
Bit rate mode : Variable
Bit rate : 3 414 Kbps
Maximum bit rate : 3 000 Kbps
Width : 720 pixels
Height : 576 pixels
Display aspect ratio : 4:3
Frame rate : 25.000 fps
Standard : PAL
Color space : YUV
Chroma subsampling : 4:2:0
Bit depth : 8 bits
Scan type : Interlaced
Scan order : Top Field First
Compression mode : Lossy
Bits/(Pixel*Frame) : 0.329
Time code of first frame : 00:00:00:00
Time code source : Group of pictures header
Stream size : 326 MiB (93%)
Color primaries : BT.709
Transfer characteristics : BT.709
Matrix coefficients : BT.709

Audio
ID : 192 (0xC0)
Format : MPEG Audio
Format version : Version 1
Format profile : Layer 2
Duration : 13mn 19s
Bit rate mode : Constant
Bit rate : 192 Kbps
Channel(s) : 2 channels
Sampling rate : 44.1 KHz
Compression mode : Lossy
Delay relative to video : -80ms
Stream size : 18.3 MiB (5%)

General
Complete name : C:\Все данные\Torrent downloads\Multik\Pochemuchka.Astronomiya.(5.sezon).2013.DVB\Pochemuchka.Astronomiya(5.sez.23.s).Dvizhenie Luny po nebu i ejo fazy.2013.MPEG.DVBRip.mpg
Format : MPEG-PS
File size : 335 MiB
Duration : 13mn 20s
Overall bit rate mode : Variable
Overall bit rate : 3 506 Kbps

Video
ID : 224 (0xE0)
Format : MPEG Video
Format version : Version 2
Format profile : Main@Main
Format settings, BVOP : Yes
Format settings, Matrix : Default
Format settings, GOP : M=3, N=15
Duration : 13mn 20s
Bit rate mode : Variable
Bit rate : 3 245 Kbps
Maximum bit rate : 3 000 Kbps
Width : 720 pixels
Height : 576 pixels
Display aspect ratio : 4:3
Frame rate : 25.000 fps
Standard : PAL
Color space : YUV
Chroma subsampling : 4:2:0
Bit depth : 8 bits
Scan type : Interlaced
Scan order : Top Field First
Compression mode : Lossy
Bits/(Pixel*Frame) : 0.313
Time code of first frame : 00:00:00:00
Time code source : Group of pictures header
Stream size : 310 MiB (93%)
Color primaries : BT.709
Transfer characteristics : BT.709
Matrix coefficients : BT.709

Audio
ID : 192 (0xC0)
Format : MPEG Audio
Format version : Version 1
Format profile : Layer 2
Duration : 13mn 20s
Bit rate mode : Constant
Bit rate : 192 Kbps
Channel(s) : 2 channels
Sampling rate : 44.1 KHz
Compression mode : Lossy
Delay relative to video : -80ms
Stream size : 18.3 MiB (5%)

General
Complete name : C:\Все данные\Torrent downloads\Multik\Pochemuchka.Astronomiya.(5.sezon).2013.DVB\Pochemuchka.Astronomiya(5.sez.24.s).Kol'ca Saturna.2013.MPEG.DVBRip.mpg
Format : MPEG-PS
File size : 343 MiB
Duration : 12mn 56s
Overall bit rate mode : Variable
Overall bit rate : 3 707 Kbps

Video
ID : 224 (0xE0)
Format : MPEG Video
Format version : Version 2
Format profile : Main@Main
Format settings, BVOP : Yes
Format settings, Matrix : Default
Format settings, GOP : M=3, N=15
Duration : 12mn 56s
Bit rate mode : Variable
Bit rate : 3 441 Kbps
Maximum bit rate : 3 000 Kbps
Width : 720 pixels
Height : 576 pixels
Display aspect ratio : 4:3
Frame rate : 25.000 fps
Standard : PAL
Color space : YUV
Chroma subsampling : 4:2:0
Bit depth : 8 bits
Scan type : Interlaced
Scan order : Top Field First
Compression mode : Lossy
Bits/(Pixel*Frame) : 0.332
Time code of first frame : 00:00:00:00
Time code source : Group of pictures header
Stream size : 319 MiB (93%)
Color primaries : BT.709
Transfer characteristics : BT.709
Matrix coefficients : BT.709

Audio
ID : 192 (0xC0)
Format : MPEG Audio
Format version : Version 1
Format profile : Layer 2
Duration : 12mn 56s
Bit rate mode : Constant
Bit rate : 192 Kbps
Channel(s) : 2 channels
Sampling rate : 44.1 KHz
Compression mode : Lossy
Delay relative to video : -80ms
Stream size : 17.8 MiB (5%)

General
Complete name : C:\Все данные\Torrent downloads\Multik\Pochemuchka.Astronomiya.(5.sezon).2013.DVB\Pochemuchka.Astronomiya(5.sez.25.s).Sposoby izmerenija vremeni.2013.MPEG.DVBRip.mpg
Format : MPEG-PS
File size : 349 MiB
Duration : 13mn 20s
Overall bit rate mode : Variable
Overall bit rate : 3 659 Kbps

Video
ID : 224 (0xE0)
Format : MPEG Video
Format version : Version 2
Format profile : Main@Main
Format settings, BVOP : Yes
Format settings, Matrix : Default
Format settings, GOP : M=3, N=15
Duration : 13mn 20s
Bit rate mode : Variable
Bit rate : 3 394 Kbps
Maximum bit rate : 3 000 Kbps
Width : 720 pixels
Height : 576 pixels
Display aspect ratio : 4:3
Frame rate : 25.000 fps
Standard : PAL
Color space : YUV
Chroma subsampling : 4:2:0
Bit depth : 8 bits
Scan type : Interlaced
Scan order : Top Field First
Compression mode : Lossy
Bits/(Pixel*Frame) : 0.327
Time code of first frame : 00:00:00:00
Time code source : Group of pictures header
Stream size : 324 MiB (93%)
Color primaries : BT.709
Transfer characteristics : BT.709
Matrix coefficients : BT.709

Audio
ID : 192 (0xC0)
Format : MPEG Audio
Format version : Version 1
Format profile : Layer 2
Duration : 13mn 20s
Bit rate mode : Constant
Bit rate : 192 Kbps
Channel(s) : 2 channels
Sampling rate : 44.1 KHz
Compression mode : Lossy
Delay relative to video : -80ms
Stream size : 18.3 MiB (5%)
Когда раздача ведётся путём добавления новых серий, при каждом обновлении раздачи создаётся новый торрент. Чтобы начать докачку новых файлов, пользователям необходимо сделать следующее:
1. Остановить в клиенте нужный торрент
2. Удалить старый торрент у себя из клиента (ранее скачанные файлы удалять не надо!),
3. Скачать новый торрент и запустить его у себя в клиенте; при этом в качестве места размещения файлов торрента необходимо указать путь в папку, содержащую ранее скачаные файлы предыдущей версии раздачи.

При запуске скачки Ваш клиент должен произвести хеширование (проверку) старой папки (если не производит сам - помогите ему сделать это), и начать докачку только тех файлов, которых у Вас ещё нет. Старые файлы при этом не удаляются, а продолжают раздаваться!
Если вы уже удалили старые файлы, то предотвратить их повторную закачку можно, отжав галочку возле ненужных файлов при запуске нового торрента.

По возможности, желательно не удалять ранее скачанные файлы как можно дольше, чтобы релизёр не столько продолжал раздавать старые файлы, сколько смог сконцентрироваться на раздаче новых.
Добавлена последняя 26 серия "Лунные и солнечные затмения".
Скриншоты:
Правила, инструкции, FAQ!!!
Торрент  Добавлен [01 дек 2015, 00:05] Скачать торрент Магнет ссылка
Скачать торрент
[ Размер 24.6 КБ / Просмотров 120 ]

Статус
Проверен 
 
Размер  8.43 ГБ
Приватный: Нет (DHT включён)
.torrent скачан  15
Как залить торрент? | Как скачать Torrent? | Ошибка в торренте? Качайте магнет  


     Отправить личное сообщение
   
Страница 1 из 1
Показать сообщения за:  Поле сортировки  
Начать новую тему Ответить на тему

   Похожие торренты   Автор   Ответы   Просмотры   Последнее сообщение 
В этой теме нет новых непрочитанных сообщений. Скачать торрент Проверен Почемучка: Астрономия / Сезон 3 / Серии 1 - 26 (26) [2013, астрономия, SATRip, RUS] (Видеоурок)

в форуме Обучающие издания для детей, Размер: 4.67 ГБ, Здоровье: 100%

Anonymous

0
793|19

347
16

28 янв 2015, 00:07

Anonymous Перейти к последнему сообщению

В этой теме нет новых непрочитанных сообщений. Скачать торрент Проверен Почемучка (2012) DVBRip (4 сезон: 23-26 серии)

в форуме Развивающее Видео для детей, Размер: 1.34 ГБ, Здоровье: 100%

Гость

0
397|10

584
10

30 ноя 2015, 23:40

Гость Перейти к последнему сообщению

В этой теме нет новых непрочитанных сообщений. Скачать торрент Автокороли пустыни. Сезон 1 (10 серий из 10) / Desert Car Kings. Season 1 [2011 г., Документальный / Реалити-ТB, SATRip / IPTVRip]

в форуме Документальные/познавательные фильмы, Размер: 6.81 ГБ, Здоровье: 34%

Anonymous

0
15|44

511
7

04 мар 2014, 13:59

Anonymous Перейти к последнему сообщению

В этой теме нет новых непрочитанных сообщений. Скачать торрент Проверен Поезд динозавров / Dinosaur Train (2009-2012) SATRip (1 сезон - 40серий, 2 сезон - 26 серий)

в форуме Развивающее Видео для детей, Размер: 20.67 ГБ, Здоровье: 100%

Гость

0
141|29

801
3

01 дек 2015, 00:16

Гость Перейти к последнему сообщению

В этой теме нет новых непрочитанных сообщений. Скачать торрент Проверен Почемучка (4 сезон (1-22 серии)) (2012) SATRip

в форуме Развивающее Видео для детей, Размер: 3.88 ГБ, Здоровье: 100%

Гость

0
36|15

227
5

30 ноя 2015, 23:35

Гость Перейти к последнему сообщению



Сейчас этот форум просматривают: нет зарегистрированных пользователей и гости: 0


Вы не можете начинать темы
Вы не можете отвечать на сообщения
Вы не можете редактировать свои сообщения
Вы не можете удалять свои сообщения
Вы не можете добавлять вложения

Перейти:  
Ресурс не предоставляет электронные версии произведений, а занимается лишь коллекционированием и каталогизацией ссылок, присылаемых и публикуемых на форуме нашими читателями. Если вы являетесь правообладателем какого-либо представленного материала и не желаете чтобы ссылка на него находилась в нашем каталоге, свяжитесь с нами и мы незамедлительно удалим её. Файлы для обмена на трекере предоставлены пользователями сайта, и администрация не несёт ответственности за их содержание. Просьба не заливать файлы, защищенные авторскими правами, а также файлы нелегального содержания!
cron