На всех торрентах на трекере установлена скидка на скачивание в размере 100 процентов(а).
 Возможность скачивания торрента НЕ зависит от ограничений при низком ратио, низком аплоаде, требуемом ратио или требуемом аплоаде.


Начать новую тему Ответить на тему
Статистика раздачи
Размер: 779.29 МБ | Добавлен: 11 окт 2016, 00:41 | Скачали: 0
Сидеров: 0  [0 байт/сек]    Личеров: 0  [0 байт/сек]
Пред. тема | След. тема 

Автор
Сообщение

СообщениеДобавлено: 11 окт 2016, 00:41 

Ответить с цитатой 


Fifty Years Later/Spirited Away


Жанр: Progressive/Power Metal Носитель: CD
Страна-производитель диска (релиза): Germany Год издания: 2012-2015
Издатель (лейбл): Massacre Records Страна исполнителя (группы): France
Аудиокодек: FLAC (*.flac) Тип рипа: image+.cue
Битрейт аудио: lossless Источник (релизер): My CDs
Наличие сканов в содержимом раздачи: да
Номер по каталогу: MASCD0796
Продолжительность: 48:36
Треклист:
01. Will You Believe Me? 01:19
02. Dead In Copenhagen 04:15
03. The Frozen Will 03:59
04. These Trees 05:03
05. The Herd 04:37
06. Fisherman's Day 03:08
07. Against The Sand 04:06
08. Any Hypothesis 09:29
09. Just Before The Silence 05:10
10. Fifty Years Later 07:26
Код:
Exact Audio Copy V1.1 from 23. June 2015

EAC extraction logfile from 10. November 2015, 16:24

Asylum Pyre / Fifty Years Later

Used drive  : HP      DVD Writer 1170d   Adapter: 1  ID: 1

Read mode               : Secure
Utilize accurate stream : Yes
Defeat audio cache      : Yes
Make use of C2 pointers : No

Read offset correction                      : 6
Overread into Lead-In and Lead-Out          : No
Fill up missing offset samples with silence : Yes
Delete leading and trailing silent blocks   : No
Null samples used in CRC calculations       : Yes
Used interface                              : Native Win32 interface for Win NT & 2000

Used output format              : User Defined Encoder
Selected bitrate                : 1024 kBit/s
Quality                         : High
Add ID3 tag                     : No
Command line compressor         : C:\Program Files (x86)\Exact Audio Copy\FLAC\FLAC.EXE
Additional command line options : -V -8 -T "Date=%year%" -T "Genre=%genre%" -T"COMMENT=Ripped by Ungern666" -8 -V %source%

TOC of the extracted CD

     Track |   Start  |  Length  | Start sector | End sector
    ---------------------------------------------------------
        1  |  0:00.00 |  1:19.52 |         0    |     5976
        2  |  1:19.52 |  4:15.25 |      5977    |    25126
        3  |  5:35.02 |  3:59.13 |     25127    |    43064
        4  |  9:34.15 |  5:03.38 |     43065    |    65827
        5  | 14:37.53 |  4:37.67 |     65828    |    86669
        6  | 19:15.45 |  3:08.27 |     86670    |   100796
        7  | 22:23.72 |  4:06.49 |    100797    |   119295
        8  | 26:30.46 |  9:29.15 |    119296    |   161985
        9  | 35:59.61 |  5:10.13 |    161986    |   185248
       10  | 41:09.74 |  7:26.10 |    185249    |   218708

Range status and errors

Selected range

     Filename C:\EAC\Ungern666\Asylum Pyre - Fifty Years Later.wav

     Peak level 98.8 %
     Extraction speed 5.7 X
     Range quality 100.0 %
     Test CRC 91A567F3
     Copy CRC 91A567F3
     Copy OK

No errors occurred

AccurateRip summary

Track  1  accurately ripped (confidence 3)  [795364D0]  (AR v2)
Track  2  accurately ripped (confidence 3)  [2582AEE4]  (AR v2)
Track  3  accurately ripped (confidence 3)  [F0090A10]  (AR v2)
Track  4  accurately ripped (confidence 3)  [95D23DB0]  (AR v2)
Track  5  accurately ripped (confidence 3)  [C58C4C5F]  (AR v2)
Track  6  accurately ripped (confidence 3)  [97B16070]  (AR v2)
Track  7  accurately ripped (confidence 3)  [FC87FBCA]  (AR v2)
Track  8  accurately ripped (confidence 3)  [48A154EA]  (AR v2)
Track  9  accurately ripped (confidence 3)  [B8873457]  (AR v2)
Track 10  accurately ripped (confidence 3)  [7700261B]  (AR v2)

All tracks accurately ripped

End of status report

---- CUETools DB Plugin V2.1.6

[CTDB TOCID: 92ddWVtya7XnR1zBSoZGJkFHN3c-] found
Submit result: 92ddWVtya7XnR1zBSoZGJkFHN3c- has been confirmed
Track | CTDB Status
  1   | (4/4) Accurately ripped
  2   | (4/4) Accurately ripped
  3   | (4/4) Accurately ripped
  4   | (4/4) Accurately ripped
  5   | (4/4) Accurately ripped
  6   | (4/4) Accurately ripped
  7   | (1/4) Accurately ripped, or (1/4) differs in 2736 samples @03:29:50-03:29:51,03:29:64-03:29:65,03:30:04-03:30:05,03:30:19-03:30:20,03:30:33-03:30:34,03:30:48-03:30:49,03:30:63-03:30:64,03:31:03-03:31:04,03:31:17-03:31:18,03:31:32-03:31:33,03:31:47-03:31:48,03:31:62-03:31:63,03:37:10-03:37:11, or (1/4) differs in 106 samples @03:32:46,03:33:15,03:33:45,03:33:59-03:33:60,03:33:74,03:34:28-03:34:29,03:34:43-03:34:44,03:34:58, or (1/4) differs in 14600 samples @03:29:35-03:29:36,03:29:50-03:29:51,03:29:65-03:29:66,03:30:05,03:30:19-03:30:20,03:30:34-03:30:35,03:30:49,03:30:63-03:30:64,03:31:03-03:31:04,03:31:18-03:31:19,03:32:31-03:32:32,03:32:46-03:32:47,03:32:61-03:32:62,03:33:00-03:33:16,03:33:31,03:33:45-03:33:46,03:33:74-03:34:00,03:34:14,03:34:29,03:34:43-03:34:44,03:36:41-03:36:42,03:36:56-03:36:57,03:36:70-03:36:71,03:37:10-03:37:11,03:37:25-03:37:26,03:37:40-03:37:41,03:37:54-03:37:55,03:37:69-03:37:70,03:38:09-03:38:10,03:38:24-03:38:25,03:38:38-03:38:39,03:38:53-03:38:54,03:38:68-03:38:69
  8   | (4/4) Accurately ripped
  9   | (4/4) Accurately ripped
 10   | (4/4) Accurately ripped

==== Log checksum 13F28519253331360A5D418BB81FF0DB83666BBFCF9F14E1131D0EB4D374AE8E ====
#777Номер по каталогу: MAS CD0927
Продолжительность: 50:28
Треклист:
01. Second Shadow 04:19
02. The Silence Of Dreams 04:21
03. Only Your Soul 03:53
04. Unplug My Brain 03:58
05. In Hayao's Arms 00:50
06. Spirited Away 03:48
07. The White Room 04:59
08. Soulburst 07:48
09. At My Door 04:12
10. Shivers 04:12
11. Instants In Time 04:24
12. Remembering 00:22
13. Fly 03:17
Код:
Exact Audio Copy V1.1 from 23. June 2015

EAC extraction logfile from 31. October 2015, 17:45

Asylum Pyre / Spirited Away

Used drive  : HP      DVD Writer 1170d   Adapter: 1  ID: 1

Read mode               : Secure
Utilize accurate stream : Yes
Defeat audio cache      : Yes
Make use of C2 pointers : No

Read offset correction                      : 6
Overread into Lead-In and Lead-Out          : No
Fill up missing offset samples with silence : Yes
Delete leading and trailing silent blocks   : No
Null samples used in CRC calculations       : Yes
Used interface                              : Native Win32 interface for Win NT & 2000

Used output format              : User Defined Encoder
Selected bitrate                : 1024 kBit/s
Quality                         : High
Add ID3 tag                     : No
Command line compressor         : C:\Program Files (x86)\Exact Audio Copy\FLAC\FLAC.EXE
Additional command line options : -V -8 -T "Date=%year%" -T "Genre=%genre%" -T"COMMENT=Ripped by Ungern666" -8 -V %source%

TOC of the extracted CD

     Track |   Start  |  Length  | Start sector | End sector
    ---------------------------------------------------------
        1  |  0:00.00 |  4:19.10 |         0    |    19434
        2  |  4:19.10 |  4:21.64 |     19435    |    39073
        3  |  8:40.74 |  3:53.03 |     39074    |    56551
        4  | 12:34.02 |  3:58.56 |     56552    |    74457
        5  | 16:32.58 |  0:50.67 |     74458    |    78274
        6  | 17:23.50 |  3:48.73 |     78275    |    95447
        7  | 21:12.48 |  4:59.22 |     95448    |   117894
        8  | 26:11.70 |  7:48.44 |    117895    |   153038
        9  | 34:00.39 |  4:12.53 |    153039    |   171991
       10  | 38:13.17 |  4:12.15 |    171992    |   190906
       11  | 42:25.32 |  4:24.12 |    190907    |   210718
       12  | 46:49.44 |  0:22.08 |    210719    |   212376
       13  | 47:11.52 |  3:17.16 |    212377    |   227167

Range status and errors

Selected range

     Filename C:\EAC\Ungern666\Asylum Pyre - Spirited Away.wav

     Peak level 97.5 %
     Extraction speed 5.8 X
     Range quality 100.0 %
     Test CRC 248D632F
     Copy CRC 248D632F
     Copy OK

No errors occurred

AccurateRip summary

Track  1  not present in database
Track  2  not present in database
Track  3  not present in database
Track  4  not present in database
Track  5  not present in database
Track  6  not present in database
Track  7  not present in database
Track  8  not present in database
Track  9  not present in database
Track 10  not present in database
Track 11  not present in database
Track 12  not present in database
Track 13  not present in database

None of the tracks are present in the AccurateRip database

End of status report

---- CUETools DB Plugin V2.1.6

[CTDB TOCID: VbDFi7kuZol4FooKxaRrWVX.Hdk-] found
Submit result: VbDFi7kuZol4FooKxaRrWVX.Hdk- has been confirmed
Track | CTDB Status
  1   | (1/1) Accurately ripped
  2   | (1/1) Accurately ripped
  3   | (1/1) Accurately ripped
  4   | (1/1) Accurately ripped
  5   | (1/1) Accurately ripped
  6   | (1/1) Accurately ripped
  7   | (1/1) Accurately ripped
  8   | (1/1) Accurately ripped
  9   | (1/1) Accurately ripped
 10   | (1/1) Accurately ripped
 11   | (1/1) Accurately ripped
 12   | (1/1) Accurately ripped
 13   | (1/1) Accurately ripped

==== Log checksum 857B42C02CE18E9A62A008D138817202BCC6A0667452D03932E9073577997AA9 ====
Материал предназначен для ознакомления!
Правила, инструкции, FAQ!!!
Торрент  Добавлен [11 окт 2016, 00:41] Скачать торрент Магнет ссылка
Скачать торрент
[ Размер 17.88 КБ / Просмотров 54 ]

Статус
Проверен 
 
Размер  779.29 МБ
Приватный: Нет (DHT включён)
.torrent скачан  0
Как залить торрент? | Как скачать Torrent? | Ошибка в торренте? Качайте магнет  


     Отправить личное сообщение
   
Страница 1 из 1
Показать сообщения за:  Поле сортировки  
Начать новую тему Ответить на тему

   Похожие торренты   Автор   Ответы   Просмотры   Последнее сообщение 
В этой теме нет новых непрочитанных сообщений. Скачать торрент Проверен (Progressive, Power Metal) Asylum Pyre - Fifty Years Later - 2012, MP3, 320 kbps

в форуме Heavy, Power, Progressive (Metal), Размер: 115.39 МБ, Здоровье: 0%

Anonymous

0
0|0

16
0

08 окт 2016, 12:58

Anonymous Перейти к последнему сообщению

В этой теме нет новых непрочитанных сообщений. Скачать торрент Проверен (Progressive/Power Metal) Asylum Pyre - Discography/Дискография - 2009-2015 (3 CD) MP3, 320 kbps

в форуме Heavy, Power, Progressive (Metal), Размер: 367.8 МБ, Здоровье: 100%

Anonymous

0
1|0

27
0

09 окт 2016, 15:32

Anonymous Перейти к последнему сообщению

В этой теме нет новых непрочитанных сообщений. Скачать торрент Проверен (Progressive/Power Metal) Asylum Pyre - Natural Instinct? - 2009, WavPack (image+.cue), lossless

в форуме Heavy, Power, Progressive (Metal), Размер: 426.07 МБ, Здоровье: 66%

Anonymous

0
2|3

11
1

10 окт 2016, 23:44

Anonymous Перейти к последнему сообщению

В этой теме нет новых непрочитанных сообщений. Скачать торрент Проверен (Progressive/Power Metal) Asylum Pyre - Natural Instinct? - 2009, MP3, 320 kbps

в форуме Heavy, Power, Progressive (Metal), Размер: 137.03 МБ, Здоровье: 11%

Anonymous

0
2|18

17
0

08 окт 2016, 12:54

Anonymous Перейти к последнему сообщению

В этой теме нет новых непрочитанных сообщений. Скачать торрент Проверен (Heavy/Power Metal) [CD] Leatherwolf - World Asylum - 2006, FLAC (image+.cue), lossless

в форуме Heavy, Power, Progressive (Metal), Размер: 417.7 МБ, Здоровье: 100%

Anonymous

0
1|0

27
0

11 окт 2016, 01:25

Anonymous Перейти к последнему сообщению



Сейчас этот форум просматривают: нет зарегистрированных пользователей и гости: 2


Вы не можете начинать темы
Вы не можете отвечать на сообщения
Вы не можете редактировать свои сообщения
Вы не можете удалять свои сообщения
Вы не можете добавлять вложения

Перейти:  
Ресурс не предоставляет электронные версии произведений, а занимается лишь коллекционированием и каталогизацией ссылок, присылаемых и публикуемых на форуме нашими читателями. Если вы являетесь правообладателем какого-либо представленного материала и не желаете чтобы ссылка на него находилась в нашем каталоге, свяжитесь с нами и мы незамедлительно удалим её. Файлы для обмена на трекере предоставлены пользователями сайта, и администрация не несёт ответственности за их содержание. Просьба не заливать файлы, защищенные авторскими правами, а также файлы нелегального содержания!
cron