На всех торрентах на трекере установлена скидка на скачивание в размере 100 процентов(а).
 Возможность скачивания торрента НЕ зависит от ограничений при низком ратио, низком аплоаде, требуемом ратио или требуемом аплоаде.


Начать новую тему Ответить на тему
Статистика раздачи
Размер: 600.84 МБ | Добавлен: 05 авг 2018, 09:24 | Скачали: 0
Сидеров: 27  [0 байт/сек]    Личеров: 8  [0 байт/сек]
Пред. тема | След. тема 

Автор
Сообщение

СообщениеДобавлено: 05 авг 2018, 09:24 

Ответить с цитатой 

The Kinks - You Really Got Me - The Very Best Of The Kinks


Жанр: Rock/Psychedelic Rock
Страна-производитель диска: Germany
Год издания диска: 1994
Лейбл: Edel
Номер по каталогу: 0028332EDL
Страна исполнителя: UK
Аудио кодек: FLAC (*.flac)
Тип рипа: image+.cue
Битрейт аудио: lossless
Источник: dafnaplus
Наличие сканов в содержимом раздачи: да, dpi 600
Продолжительность: 52:28
Трэклист:
01. You Really Got Me 2:14
02. Come On Now 1:46
03. All Day And All Of The Night 2:23
04. See My Friends 2:44
05. Tired Of Waiting For You 2:32
06. Dead End Street 3:21
07. Set Me Free 2:12
08. Louie, Louie 2:57
09. Long Tall Shorty 2:50
10. Death Of A Clown 3:03
11. Dedicated Follower Of Fashion 3:01
12. Sunny Afternoon 3:34
13. Dandy 2:09
14. Waterloo Sunset 3:15
15. Mr. Pleasant 2:56
16. Victoria 3:38
17. Apeman 3:51
18. Lola 4:01
Код:
Exact Audio Copy V1.3 from 2. September 2016
EAC extraction logfile from 27. July 2018, 18:20
The Kinks / You Really Got Me - The Very Best Of The Kinks (Disc 1)
Used drive  : ASUS    DRW-24D5MT   Adapter: 1  ID: 0
Read mode               : Secure
Utilize accurate stream : Yes
Defeat audio cache      : Yes
Make use of C2 pointers : No
Read offset correction                      : 6
Overread into Lead-In and Lead-Out          : No
Fill up missing offset samples with silence : Yes
Delete leading and trailing silent blocks   : No
Null samples used in CRC calculations       : Yes
Used interface                              : Native Win32 interface for Win NT & 2000
Used output format              : User Defined Encoder
Selected bitrate                : 768 kBit/s
Quality                         : High
Add ID3 tag                     : No
Command line compressor         : C:\Program Files (x86)\Exact Audio Copy\Flac\flac.exe
Additional command line options : -V -8 -T "Genre=%genre%" -T "Artist=%artist%" -T "Title=%title%" -T "Album=%albumtitle%" -T "Date=%year%" -T "Tracknumber=%tracknr%" -T "Comment=%comment%" %source%
TOC of the extracted CD
     Track |   Start  |  Length  | Start sector | End sector
    ---------------------------------------------------------
        1  |  0:00.00 |  2:14.22 |         0    |    10071
        2  |  2:14.22 |  1:45.73 |     10072    |    18019
        3  |  4:00.20 |  2:23.22 |     18020    |    28766
        4  |  6:23.42 |  2:44.20 |     28767    |    41086
        5  |  9:07.62 |  2:31.63 |     41087    |    52474
        6  | 11:39.50 |  3:21.15 |     52475    |    67564
        7  | 15:00.65 |  2:12.10 |     67565    |    77474
        8  | 17:13.00 |  2:56.40 |     77475    |    90714
        9  | 20:09.40 |  2:49.47 |     90715    |   103436
       10  | 22:59.12 |  3:02.63 |    103437    |   117149
       11  | 26:02.00 |  3:01.15 |    117150    |   130739
       12  | 29:03.15 |  3:34.10 |    130740    |   146799
       13  | 32:37.25 |  2:09.20 |    146800    |   156494
       14  | 34:46.45 |  3:15.00 |    156495    |   171119
       15  | 38:01.45 |  2:56.10 |    171120    |   184329
       16  | 40:57.55 |  3:38.35 |    184330    |   200714
       17  | 44:36.15 |  3:51.20 |    200715    |   218059
       18  | 48:27.35 |  4:00.40 |    218060    |   236099
Range status and errors
Selected range
     Filename H:\dafnaplus\Kinks - You Really Got Me - The Very Best Of The Kinks\Disc 1\The Kinks - You Really Got Me - The Very Best Of The Kinks (Disc 1).wav
     Peak level 100.0 %
     Extraction speed 6.5 X
     Range quality 99.9 %
     Test CRC EDD2E449
     Copy CRC EDD2E449
     Copy OK
No errors occurred
AccurateRip summary
Track  1  accurately ripped (confidence 39)  [15D2F918]  (AR v2)
Track  2  accurately ripped (confidence 38)  [6863D257]  (AR v2)
Track  3  accurately ripped (confidence 39)  [D41B13DA]  (AR v2)
Track  4  accurately ripped (confidence 38)  [F1CD8138]  (AR v2)
Track  5  accurately ripped (confidence 39)  [A144EF08]  (AR v2)
Track  6  accurately ripped (confidence 38)  [945F2978]  (AR v2)
Track  7  accurately ripped (confidence 39)  [083D7E19]  (AR v2)
Track  8  accurately ripped (confidence 38)  [25571885]  (AR v2)
Track  9  accurately ripped (confidence 38)  [434755C0]  (AR v2)
Track 10  accurately ripped (confidence 38)  [5DEE2A81]  (AR v2)
Track 11  accurately ripped (confidence 38)  [C79247F1]  (AR v2)
Track 12  accurately ripped (confidence 39)  [464196BB]  (AR v2)
Track 13  accurately ripped (confidence 38)  [22330230]  (AR v2)
Track 14  accurately ripped (confidence 39)  [B1BB9834]  (AR v2)
Track 15  accurately ripped (confidence 39)  [D7C1DDFC]  (AR v2)
Track 16  accurately ripped (confidence 38)  [ECDCC6B0]  (AR v2)
Track 17  accurately ripped (confidence 37)  [E7CAB886]  (AR v2)
Track 18  accurately ripped (confidence 40)  [72CD5137]  (AR v2)
All tracks accurately ripped
End of status report
---- CUETools DB Plugin V2.1.6
[CTDB TOCID: gC6Vk.58bfwpJiCc8EMCl83tSFE-] found
Submit result: gC6Vk.58bfwpJiCc8EMCl83tSFE- has been confirmed
Track | CTDB Status
  1   | (150/154) Accurately ripped
  2   | (151/154) Accurately ripped
  3   | (151/154) Accurately ripped
  4   | (151/154) Accurately ripped
  5   | (151/154) Accurately ripped
  6   | (151/154) Accurately ripped
  7   | (151/154) Accurately ripped
  8   | (151/154) Accurately ripped
  9   | (151/154) Accurately ripped
 10   | (151/154) Accurately ripped
 11   | (151/154) Accurately ripped
 12   | (151/154) Accurately ripped
 13   | (151/154) Accurately ripped
 14   | (150/154) Accurately ripped
 15   | (148/154) Accurately ripped
 16   | (149/154) Accurately ripped
 17   | (148/154) Accurately ripped
 18   | (148/154) Accurately ripped
==== Log checksum 032DBEC73B3AB9F9A9D6C3C009D35CE25064B429DA13E9A63B8F163B1488B37D ====
Код:
foobar2000 1.3.16 / Dynamic Range Meter 1.1.1
log date: 2018-07-27 18:47:40
--------------------------------------------------------------------------------
Analyzed: The Kinks / You Really Got Me - The Very Best Of The Kinks (Disc 1)
--------------------------------------------------------------------------------
DR         Peak         RMS     Duration Track
--------------------------------------------------------------------------------
DR9       -1.74 dB   -13.61 dB      2:14 01-You Really Got Me
DR10      -1.81 dB   -13.21 dB      1:46 02-Come On Now
DR10      -0.50 dB   -12.83 dB      2:23 03-All Day And All Of The Night
DR11      -1.70 dB   -14.90 dB      2:44 04-See My Friends
DR11      -0.17 dB   -13.28 dB      2:32 05-Tired Of Waiting For You
DR12      -1.51 dB   -14.99 dB      3:21 06-Dead End Street
DR11      -1.17 dB   -13.76 dB      2:12 07-Set Me Free
DR11      -2.21 dB   -15.67 dB      2:57 08-Louie, Louie
DR12      -1.55 dB   -16.53 dB      2:50 09-Long Tall Shorty
DR13      -0.30 dB   -14.61 dB      3:03 10-Death Of A Clown
DR12      -1.56 dB   -17.02 dB      3:01 11-Dedicated Follower Of Fashion
DR11      -0.95 dB   -13.91 dB      3:34 12-Sunny Afternoon
DR13      -0.73 dB   -15.76 dB      2:09 13-Dandy
DR11      -0.17 dB   -13.08 dB      3:15 14-Waterloo Sunset
DR11      -0.77 dB   -13.75 dB      2:56 15-Mr. Pleasant
DR10      -0.88 dB   -12.54 dB      3:38 16-Victoria
DR12      -0.79 dB   -15.46 dB      3:51 17-Apeman
DR12       0.00 dB   -13.68 dB      4:01 18-Lola
--------------------------------------------------------------------------------
Number of tracks:  18
Official DR value: DR11
Samplerate:        44100 Hz
Channels:          2
Bits per sample:   16
Bitrate:           643 kbps
Codec:             FLAC
================================================================================
#777
Продолжительность: 59:41
Трэклист:
01. Come Dancing 3:57
02. Days 2:53
03. A Rock 'n' Roll Fantasy 5:00
04. Autumn Almanac 3:11
05. Beautiful Delilah 2:06
06. Susannahs Still Alive 2:21
07. This Man He Weeps Tonight 2:41
08. David Watts 2:35
09. Everybody's Gonna Be Happy 2:15
10. Dancing In The Street 2:17
11. Don't Ever Change 2:23
12. I'm Not Like Everybody Else 3:27
13. Think Visual 3:11
14. UK Jive 3:48
15. Lost & Found 5:17
16. Give The People What They Want 3:56
17. War Is Over 3:42
18. Don't Forget To Dance 4:40
Код:
Exact Audio Copy V1.3 from 2. September 2016
EAC extraction logfile from 27. July 2018, 18:44
The Kinks / You Really Got Me - The Very Best Of The Kinks (Disc 2)
Used drive  : ASUS    DRW-24D5MT   Adapter: 1  ID: 0
Read mode               : Secure
Utilize accurate stream : Yes
Defeat audio cache      : Yes
Make use of C2 pointers : No
Read offset correction                      : 6
Overread into Lead-In and Lead-Out          : No
Fill up missing offset samples with silence : Yes
Delete leading and trailing silent blocks   : No
Null samples used in CRC calculations       : Yes
Used interface                              : Native Win32 interface for Win NT & 2000
Used output format              : User Defined Encoder
Selected bitrate                : 768 kBit/s
Quality                         : High
Add ID3 tag                     : No
Command line compressor         : C:\Program Files (x86)\Exact Audio Copy\Flac\flac.exe
Additional command line options : -V -8 -T "Genre=%genre%" -T "Artist=%artist%" -T "Title=%title%" -T "Album=%albumtitle%" -T "Date=%year%" -T "Tracknumber=%tracknr%" -T "Comment=%comment%" %source%
TOC of the extracted CD
     Track |   Start  |  Length  | Start sector | End sector
    ---------------------------------------------------------
        1  |  0:00.00 |  3:57.37 |         0    |    17811
        2  |  3:57.37 |  2:52.63 |     17812    |    30774
        3  |  6:50.25 |  5:00.10 |     30775    |    53284
        4  | 11:50.35 |  3:11.02 |     53285    |    67611
        5  | 15:01.37 |  2:06.03 |     67612    |    77064
        6  | 17:07.40 |  2:21.05 |     77065    |    87644
        7  | 19:28.45 |  2:40.50 |     87645    |    99694
        8  | 22:09.20 |  2:35.35 |     99695    |   111354
        9  | 24:44.55 |  2:14.40 |    111355    |   121444
       10  | 26:59.20 |  2:17.22 |    121445    |   131741
       11  | 29:16.42 |  2:22.50 |    131742    |   142441
       12  | 31:39.17 |  3:26.45 |    142442    |   157936
       13  | 35:05.62 |  3:11.30 |    157937    |   172291
       14  | 38:17.17 |  3:48.28 |    172292    |   189419
       15  | 42:05.45 |  5:17.17 |    189420    |   213211
       16  | 47:22.62 |  3:56.25 |    213212    |   230936
       17  | 51:19.12 |  3:41.63 |    230937    |   247574
       18  | 55:01.00 |  4:40.00 |    247575    |   268574
Range status and errors
Selected range
     Filename H:\dafnaplus\Kinks - You Really Got Me - The Very Best Of The Kinks\Disc 2\The Kinks - You Really Got Me - The Very Best Of The Kinks (Disc 2).wav
     Peak level 99.8 %
     Extraction speed 6.9 X
     Range quality 100.0 %
     Test CRC 6AA45788
     Copy CRC 6AA45788
     Copy OK
No errors occurred
AccurateRip summary
Track  1  accurately ripped (confidence 36)  [F434B004]  (AR v2)
Track  2  accurately ripped (confidence 37)  [CCADDC17]  (AR v2)
Track  3  accurately ripped (confidence 35)  [AC692DD2]  (AR v2)
Track  4  accurately ripped (confidence 37)  [C27BC240]  (AR v2)
Track  5  accurately ripped (confidence 35)  [14309107]  (AR v2)
Track  6  accurately ripped (confidence 36)  [A9E8AE72]  (AR v2)
Track  7  accurately ripped (confidence 35)  [DBD159DD]  (AR v2)
Track  8  accurately ripped (confidence 37)  [43A3EDB5]  (AR v2)
Track  9  accurately ripped (confidence 36)  [72B596FE]  (AR v2)
Track 10  accurately ripped (confidence 36)  [A1465B1E]  (AR v2)
Track 11  accurately ripped (confidence 35)  [7D83E34D]  (AR v2)
Track 12  accurately ripped (confidence 36)  [2863EC33]  (AR v2)
Track 13  accurately ripped (confidence 35)  [3E92A495]  (AR v2)
Track 14  accurately ripped (confidence 35)  [4BCEE0B0]  (AR v2)
Track 15  accurately ripped (confidence 37)  [19A5E97C]  (AR v2)
Track 16  accurately ripped (confidence 35)  [9743BF1F]  (AR v2)
Track 17  accurately ripped (confidence 35)  [10B24B3E]  (AR v2)
Track 18  accurately ripped (confidence 37)  [BAA75431]  (AR v2)
All tracks accurately ripped
End of status report
---- CUETools DB Plugin V2.1.6
[CTDB TOCID: Z0aVdSMArZyh9DJwjbhKQNdZQn4-] found
Submit result: Z0aVdSMArZyh9DJwjbhKQNdZQn4- has been confirmed
Track | CTDB Status
  1   | (143/146) Accurately ripped
  2   | (144/146) Accurately ripped
  3   | (144/146) Accurately ripped
  4   | (143/146) Accurately ripped
  5   | (144/146) Accurately ripped
  6   | (143/146) Accurately ripped
  7   | (143/146) Accurately ripped
  8   | (143/146) Accurately ripped
  9   | (143/146) Accurately ripped
 10   | (144/146) Accurately ripped
 11   | (144/146) Accurately ripped
 12   | (144/146) Accurately ripped
 13   | (143/146) Accurately ripped
 14   | (144/146) Accurately ripped
 15   | (144/146) Accurately ripped
 16   | (144/146) Accurately ripped
 17   | (144/146) Accurately ripped
 18   | (144/146) Accurately ripped
==== Log checksum E6AEED6A4C3E05200235FEDB237DA86DFBC7449934419B4A6EC71E233DFFEAC8 ====
Код:
foobar2000 1.3.16 / Dynamic Range Meter 1.1.1
log date: 2018-07-27 18:49:02
--------------------------------------------------------------------------------
Analyzed: The Kinks / You Really Got Me - The Very Best Of The Kinks (Disc 2)
--------------------------------------------------------------------------------
DR         Peak         RMS     Duration Track
--------------------------------------------------------------------------------
DR14      -1.45 dB   -16.70 dB      3:57 01-Come Dancing
DR13      -0.67 dB   -14.92 dB      2:53 02-Days
DR13      -0.64 dB   -17.10 dB      5:00 03-A Rock 'n' Roll Fantasy
DR11      -1.21 dB   -13.45 dB      3:11 04-Autumn Almanac
DR13      -0.01 dB   -15.25 dB      2:06 05-Beautiful Delilah
DR12      -2.41 dB   -16.04 dB      2:21 06-Susannahs Still Alive
DR12      -0.40 dB   -13.39 dB      2:41 07-This Man He Weeps Tonight
DR13      -0.40 dB   -16.45 dB      2:35 08-David Watts
DR12      -0.37 dB   -13.58 dB      2:15 09-Everybody's Gonna Be Happy
DR12      -2.30 dB   -15.38 dB      2:17 10-Dancing In The Street
DR12      -0.58 dB   -13.66 dB      2:23 11-Don't Ever Change
DR13      -0.09 dB   -15.77 dB      3:27 12-I'm Not Like Everybody Else
DR17      -0.60 dB   -20.37 dB      3:11 13-Think Visual
DR14      -0.66 dB   -16.56 dB      3:48 14-UK Jive
DR17      -0.30 dB   -19.26 dB      5:17 15-Lost & Found
DR14      -1.73 dB   -18.01 dB      3:56 16-Give The People What They Want
DR14      -0.79 dB   -16.69 dB      3:42 17-War Is Over
DR13      -1.23 dB   -16.69 dB      4:40 18-Don't Forget To Dance
--------------------------------------------------------------------------------
Number of tracks:  18
Official DR value: DR13
Samplerate:        44100 Hz
Channels:          2
Bits per sample:   16
Bitrate:           776 kbps
Codec:             FLAC
================================================================================

Правила, инструкции, FAQ!!!
Торрент  Добавлен [05 авг 2018, 09:24] Скачать торрент Магнет ссылка
Скачать торрент
[ Размер 13.34 КБ / Просмотров 17 ]

Статус
Проверен 
 
Размер  600.84 МБ
Приватный: Нет (DHT включён)
.torrent скачан  0
Как залить торрент? | Как скачать Torrent? | Ошибка в торренте? Качайте магнет  


     Отправить личное сообщение
   
Страница 1 из 1
Показать сообщения за:  Поле сортировки  
Начать новую тему Ответить на тему

   Похожие торренты   Автор   Ответы   Просмотры   Последнее сообщение 
В этой теме нет новых непрочитанных сообщений. Скачать торрент Проверен (Classic Rock) The Kinks - You Really Got Me: The Very Best Of The Kinks (2CD) (Edel Company 0028332EDL Germany) - 1992, APE (image+.cue), lossless

в форуме Classic Rock & Hard Rock, Размер: 552.1 МБ, Здоровье: 100%

Anonymous

0
7|1

9
0

03 сен 2016, 17:15

Anonymous Перейти к последнему сообщению

В этой теме нет новых непрочитанных сообщений. Скачать торрент Проверен (Classic Rock / Rock) The Kinks - Kinks (You Really Got Me) & Kinda Kinks - 1996, FLAC (image+.cue), lossless

в форуме Classic Rock & Hard Rock, Размер: 527.97 МБ, Здоровье: 64%

Anonymous

0
9|14

55
0

03 сен 2016, 22:58

Anonymous Перейти к последнему сообщению

В этой теме нет новых непрочитанных сообщений. Скачать торрент Проверен (Classic rock, Pub-rock) The Kinks - Come Dancing With The Kinks - The Best Of The Kinks 1977-1986 (SACD) - 2004, FLAC (tracks+.cue), lossless

в форуме Classic Rock & Hard Rock, Размер: 530.41 МБ, Здоровье: 100%

Anonymous

0
5|1

51
2

03 сен 2016, 17:14

Anonymous Перейти к последнему сообщению

В этой теме нет новых непрочитанных сообщений. Скачать торрент Проверен (Classic Rock, Rock & Roll, New Wave) [CD] The Kinks - Come Dancing With The Kinks: The Best Of The Kinks 1977-1986 - 1986 (Arista USA), FLAC (image+.cue), lossless

в форуме Classic Rock & Hard Rock, Размер: 453.39 МБ, Здоровье: 100%

Anonymous

0
51|3

47
1

04 сен 2016, 22:31

Anonymous Перейти к последнему сообщению

В этой теме нет новых непрочитанных сообщений. Скачать торрент Проверен (rock'n'roll) The Kinks - Kinda Kinks - 1965, FLAC (image+.cue), lossless + 11 bonus tracks

в форуме Classic Rock & Hard Rock, Размер: 247.4 МБ, Здоровье: 100%

Anonymous

0
6|2

34
0

03 сен 2016, 17:14

Anonymous Перейти к последнему сообщению



Сейчас этот форум просматривают: нет зарегистрированных пользователей и гости: 1


Вы не можете начинать темы
Вы не можете отвечать на сообщения
Вы не можете редактировать свои сообщения
Вы не можете удалять свои сообщения
Вы не можете добавлять вложения

Перейти:  
Ресурс не предоставляет электронные версии произведений, а занимается лишь коллекционированием и каталогизацией ссылок, присылаемых и публикуемых на форуме нашими читателями. Если вы являетесь правообладателем какого-либо представленного материала и не желаете чтобы ссылка на него находилась в нашем каталоге, свяжитесь с нами и мы незамедлительно удалим её. Файлы для обмена на трекере предоставлены пользователями сайта, и администрация не несёт ответственности за их содержание. Просьба не заливать файлы, защищенные авторскими правами, а также файлы нелегального содержания!
cron