На всех торрентах на трекере установлена скидка на скачивание в размере 100 процентов(а).
 Возможность скачивания торрента НЕ зависит от ограничений при низком ратио, низком аплоаде, требуемом ратио или требуемом аплоаде.


Начать новую тему Ответить на тему
Статистика раздачи
Размер: 45.92 ГБ | Добавлен: 05 авг 2018, 09:25 | Скачали: 0
Сидеров: 5  [0 байт/сек]    Личеров: 5  [0 байт/сек]
Пред. тема | След. тема 

Автор
Сообщение

СообщениеДобавлено: 05 авг 2018, 09:25 

Ответить с цитатой 

Страна (Origin):
Los Angeles, California, USA | Жанр (Genres): Psychedelic / Blues / Hard Rock | Год (Years active): 1965-1973
The Doors («Двери» — англ.) — американская рок-группа, созданная в 1965 году в Лос-Анджелесе, оказавшая сильное влияние на культуру и искусство 60-х годов. Загадочные, мистические, иносказательные тексты песен и яркий образ вокалиста группы, Джима Моррисона, сделали её едва ли не самой знаменитой и равно же противоречивой группой своего времени. Даже после временного распада в 1971 году её популярность не шла на убыль. В общей сложности в США было реализовано 32 500 500 копий их альбомов. Группа продала более 100 миллионов альбомов по всему миру. The Doors стала первой американской группой у которой было 8 золотых альбомов подряд. В 1993 году были введены в Зал славы рок-н-ролла.
История The Doors началась в июле 1965 года, когда студенты кинематографического колледжа UCLA Джим Моррисон и Рэй Манзарек повстречались на пляже, будучи немного знакомыми ранее. Моррисон рассказал Манзареку, что пишет стихи и предложил создать группу. После того, как Моррисон спел свою песню Moonlight Drive, Манзарек согласился.
2 сентября 1965 года Моррисон, Манзарек и Денсмор вместе с музыкантами из Rick and The Ravens и бас-гитаристкой Патти Салливан записали первые студийные версии песен будущих The Doors. Позднее эти записи — Moonlight Drive, My Eyes Have Seen You, Hello, I Love You, Go Insane (раннее название композиции A Little Game из Celebration of the Lizard), End of the Night и Summer’s Almost Gone — неоднократно издавались как бутлег. В 1997 году они вышли в составе «коробочного» сборника песен The Doors.
Название группы музыканты позаимствовали у английского писателя Олдоса Хаксли. В своём эссе «Двери восприятия» (англ. The Doors of Perception) (1954) писатель взял эпиграфом строки из поэмы «Бракосочетание Рая и Ада» английского поэта XVIII века Уильяма Блейка: «If the doors of perception were cleansed, every thing would appear to man as it is: infinite». В русском переводе Максима Немцова (1991) эта фраза звучит как «Если бы двери восприятия были чисты, все предстало бы человеку таким, как оно есть — бесконечным».
В 1966 году The Doors записали свой первый альбом с одноимённым названием. Однако вышел он только в 1967 году и встретил в основном сдержанные оценки со стороны критиков. На альбоме были представлены наиболее известные песни из имевшегося к тому моменту репертуара The Doors, включая 11-минутную драматическую композицию The End. Группа записала альбом в студии за несколько дней в конце августа — начале сентября практически живьём (почти все песни записывались в один дубль).
Репертуара группы хватило и на ещё один альбом, вышедший в октябре того же года. Альбом Strange Days был записан на более совершенном оборудовании, и занял третью позицию в американских чартах. В отличие от дебютной пластинки на нём не было чужих песен — всё его содержание (и тексты и музыка) были созданы группой самостоятельно. Есть в нём и элементы новаторства, например, чтение Моррисоном одного из своих ранних стихотворений Horse Latitudes («Лошадиные широты»), наложенного на белый шум.
По официальной версии Моррисон умер 3 июля 1971 года в Париже от сердечного приступа, однако настоящей причины его смерти никто не знает. Среди вариантов назывались: передозировка наркотиков, самоубийство, инсценировка самоубийства службами ФБР, которые тогда вели активную борьбу с участниками движения хиппи и прочее. Единственный человек, который видел певца мёртвым — подруга Моррисона, Памела Курсон. Но она унесла тайну его смерти с собой в могилу, так как скончалась от передозировки наркотиков три года спустя.

Лейблы:

Elektra, Rhino, Audio Fidelity, DCC, EastWest, Warner Bros., Wea, Bright Midnight Archives, Никитин
Производитель дисков:
USA, Canada, Brazil, EU, UK, Germany, France, Japan, RUS, Australia, Argentina
Аудио кодек (Audio codec):
FLAC, WV | Тип рипа: tracks / image+.cue | Битрейт аудио: lossless

Studio Albums

Tracklist:
1. Break on through
2. Soul kitchen
3. The crystal ship
4. Twentieth century fox
5. Alabama song (whiskey bar)
6. Light my fire
7. Back door man
8. I looked at you
9. End of the night
10. Take it as it comes
11. The end
'40th Anniversary Mixes' Bonus Tracks
12. Moonlight Drive (version 1) [rec. 24.08.66]
13. Moonlight Drive (version 2) [rec. 24.08.66]
14. Indian Summer (vocal version) [rec. 19.08.66]
'50th Anniversary Mixes' Bonus CD's
CD 2 Album Original Mono Mix
CD 3 Live At The Matrix, March 7, 1967
The Matrix, San Francisco, CA 07.03.67
1. Break On Through (To The Other Side)
2. Soul Kitchen
3. The Crystal Ship
4. Twentieth Century Fox
5. Alabama Song (Whisky Bar)
6. Light My Fire
7. Back Door Man
8. The End
Matrix: 7559 74007-2 2893 222 01 #
Ripper: havefun6699
Код:
Exact Audio Copy V1.0 beta 2 from 29. April 2011
Отчёт EAC об извлечении, выполненном 24. октября 2012, 11:15
The Doors / The Doors
Дисковод: MATSHITADVD-RAM UJ8B1AS   Adapter: 0  ID: 1
Режим чтения                 : Достоверность
Использование точного потока : Да
Отключение кэша аудио        : Да
Использование указателей C2  : Нет
Коррекция смещения при чтении                     : 6
Способность читать области Lead-in и Lead-out     : Нет
Заполнение пропущенных сэмплов тишиной            : Да
Удаление блоков с тишиной в начале и конце        : Нет
При вычислениях CRC использовались нулевые сэмплы : Нет
Интерфейс                                         : Встроенный Win32-интерфейс для Win NT/2000
Выходной формат          : Пользовательский кодировщик
Выбранный битрейт        : 768 kBit/s
Качество                 : Высокий
Добавление ID3-тега      : Нет
Утилита сжатия           : C:\Program Files (x86)\Exact Audio Copy\FLAC\FLAC.EXE
Дополнительные параметры : -6 -V -T "ARTIST=%artist%" -T "TITLE=%title%" -T "ALBUM=%albumtitle%" -T "DATE=%year%" -T "TRACKNUMBER=%tracknr%" -T "GENRE=%genre%" -T "COMMENT=%comment%" -T "BAND=%albuminterpret%" -T "COMPOSER=%composer%" %haslyrics%--tag-from-
TOC извлечённого CD
     Трек |   Старт  | Длительность | Начальный сектор | Конечный сектор
    ---------------------------------------------------------------------
       1  |  0:00.32 |    2:29.15   |          32      |      11221
       2  |  2:29.47 |    3:34.43   |       11222      |      27314
       3  |  6:04.15 |    2:34.12   |       27315      |      38876
       4  |  8:38.27 |    2:32.63   |       38877      |      50339
       5  | 11:11.15 |    3:19.10   |       50340      |      65274
       6  | 14:30.25 |    7:07.17   |       65275      |      97316
       7  | 21:37.42 |    3:33.43   |       97317      |     113334
       8  | 25:11.10 |    2:21.72   |      113335      |     123981
       9  | 27:33.07 |    2:53.15   |      123982      |     136971
      10  | 30:26.22 |    2:15.60   |      136972      |     147156
      11  | 32:42.07 |   11:42.53   |      147157      |     199859
Характеристики диапазона извлечения и сообщения об ошибках
Выбранный диапазон
     Имя файла D:\The Doors\The Doors target\The Doors - The Doors.wav
     Пиковый уровень 81.2 %
     Скорость извлечения 1.8 X
     Качество диапазона 100.0 %
     CRC копии 9608E41E
     Копирование... OK
Ошибок не произошло
AccurateRip: сводка
Трек  1  : извлечено точно (доверие 4)  [B0F29491]  (AR v2)
Трек  2  : извлечено точно (доверие 4)  [661CB9DB]  (AR v2)
Трек  3  : извлечено точно (доверие 4)  [ED50874D]  (AR v2)
Трек  4  : извлечено точно (доверие 4)  [569A91A1]  (AR v2)
Трек  5  : извлечено точно (доверие 4)  [3FA7FE14]  (AR v2)
Трек  6  : извлечено точно (доверие 4)  [E0BDCF9C]  (AR v2)
Трек  7  : извлечено точно (доверие 4)  [62B6CD09]  (AR v2)
Трек  8  : извлечено точно (доверие 4)  [D2809A96]  (AR v2)
Трек  9  : извлечено точно (доверие 4)  [4E3AA1F6]  (AR v2)
Трек 10  : извлечено точно (доверие 4)  [135CB6A6]  (AR v2)
Трек 11  : извлечено точно (доверие 4)  [F84FFA0B]  (AR v2)
Все треки извлечены точно
Конец отчёта
==== Контрольная сумма отчёта 7FC0AF81264799F85C1C1CDA4C406F9B628CD118E97F7723B8628FFC9C34EAF3 ====
Matrix: 32XD-405 11A3 +++++
Ripper: havefun6699
same as (1984) West Germany, Elektra 74007-2 (242 012) {Target CD}
Код:
Exact Audio Copy V1.0 beta 2 from 29. April 2011
Отчёт EAC об извлечении, выполненном 24. октября 2012, 9:41
The Doors / The Doors
Дисковод: MATSHITADVD-RAM UJ8B1AS   Adapter: 0  ID: 1
Режим чтения                 : Достоверность
Использование точного потока : Да
Отключение кэша аудио        : Да
Использование указателей C2  : Нет
Коррекция смещения при чтении                     : 6
Способность читать области Lead-in и Lead-out     : Нет
Заполнение пропущенных сэмплов тишиной            : Да
Удаление блоков с тишиной в начале и конце        : Нет
При вычислениях CRC использовались нулевые сэмплы : Нет
Интерфейс                                         : Встроенный Win32-интерфейс для Win NT/2000
Выходной формат          : Пользовательский кодировщик
Выбранный битрейт        : 768 kBit/s
Качество                 : Высокий
Добавление ID3-тега      : Нет
Утилита сжатия           : C:\Program Files (x86)\Exact Audio Copy\FLAC\FLAC.EXE
Дополнительные параметры : -6 -V -T "ARTIST=%artist%" -T "TITLE=%title%" -T "ALBUM=%albumtitle%" -T "DATE=%year%" -T "TRACKNUMBER=%tracknr%" -T "GENRE=%genre%" -T "COMMENT=%comment%" -T "BAND=%albuminterpret%" -T "COMPOSER=%composer%" %haslyrics%--tag-from-
TOC извлечённого CD
     Трек |   Старт  | Длительность | Начальный сектор | Конечный сектор
    ---------------------------------------------------------------------
       1  |  0:00.00 |    2:29.50   |           0      |      11224
       2  |  2:29.50 |    3:34.42   |       11225      |      27316
       3  |  6:04.17 |    2:34.13   |       27317      |      38879
       4  |  8:38.30 |    2:32.62   |       38880      |      50341
       5  | 11:11.17 |    3:19.10   |       50342      |      65276
       6  | 14:30.27 |    7:07.18   |       65277      |      97319
       7  | 21:37.45 |    3:33.40   |       97320      |     113334
       8  | 25:11.10 |    2:22.00   |      113335      |     123984
       9  | 27:33.10 |    2:53.15   |      123985      |     136974
      10  | 30:26.25 |    2:15.60   |      136975      |     147159
      11  | 32:42.10 |   11:43.15   |      147160      |     199899
Характеристики диапазона извлечения и сообщения об ошибках
Выбранный диапазон
     Имя файла D:\The Doors\The Doors 32XD-405\The Doors - The Doors.wav
     Пиковый уровень 81.2 %
     Скорость извлечения 4.0 X
     Качество диапазона 100.0 %
     CRC копии B849B40C
     Копирование... OK
Ошибок не произошло
AccurateRip: сводка
Трек  1  : извлечено точно (доверие 6)  [428C1A66]  (AR v1)
Трек  2  : извлечено точно (доверие 6)  [770110A3]  (AR v1)
Трек  3  : извлечено точно (доверие 6)  [79BAE1AA]  (AR v1)
Трек  4  : извлечено точно (доверие 6)  [1A82806F]  (AR v1)
Трек  5  : извлечено точно (доверие 6)  [B0DC36C6]  (AR v1)
Трек  6  : извлечено точно (доверие 6)  [29F6BE91]  (AR v1)
Трек  7  : извлечено точно (доверие 6)  [08367236]  (AR v1)
Трек  8  : извлечено точно (доверие 6)  [895C6C2C]  (AR v1)
Трек  9  : извлечено точно (доверие 6)  [0FD9A202]  (AR v1)
Трек 10  : извлечено точно (доверие 6)  [A5B7F493]  (AR v1)
Трек 11  : извлечено точно (доверие 6)  [DD343838]  (AR v1)
Все треки извлечены точно
Конец отчёта
==== Контрольная сумма отчёта 5563926B367A9F55DFDE8D1F33E8B10CB1264045DC5A01F2010F1ED27F7B6CE8 ====
Matrix: 974 007-2 SRC-02 18
Ripper: havefun6699
Код:
Exact Audio Copy V1.0 beta 2 from 29. April 2011
Отчёт EAC об извлечении, выполненном 24. октября 2012, 14:27
The Doors / The Doors
Дисковод: MATSHITADVD-RAM UJ8B1AS   Adapter: 0  ID: 1
Режим чтения                 : Достоверность
Использование точного потока : Да
Отключение кэша аудио        : Да
Использование указателей C2  : Нет
Коррекция смещения при чтении                     : 6
Способность читать области Lead-in и Lead-out     : Нет
Заполнение пропущенных сэмплов тишиной            : Да
Удаление блоков с тишиной в начале и конце        : Нет
При вычислениях CRC использовались нулевые сэмплы : Нет
Интерфейс                                         : Встроенный Win32-интерфейс для Win NT/2000
Выходной формат          : Пользовательский кодировщик
Выбранный битрейт        : 768 kBit/s
Качество                 : Высокий
Добавление ID3-тега      : Нет
Утилита сжатия           : C:\Program Files (x86)\Exact Audio Copy\FLAC\FLAC.EXE
Дополнительные параметры : -6 -V -T "ARTIST=%artist%" -T "TITLE=%title%" -T "ALBUM=%albumtitle%" -T "DATE=%year%" -T "TRACKNUMBER=%tracknr%" -T "GENRE=%genre%" -T "COMMENT=%comment%" -T "BAND=%albuminterpret%" -T "COMPOSER=%composer%" %haslyrics%--tag-from-
TOC извлечённого CD
     Трек |   Старт  | Длительность | Начальный сектор | Конечный сектор
    ---------------------------------------------------------------------
       1  |  0:00.32 |    2:29.15   |          32      |      11221
       2  |  2:29.47 |    3:34.73   |       11222      |      27344
       3  |  6:04.45 |    2:34.62   |       27345      |      38956
       4  |  8:39.32 |    2:33.65   |       38957      |      50496
       5  | 11:13.22 |    3:20.03   |       50497      |      65499
       6  | 14:33.25 |    7:08.22   |       65500      |      97621
       7  | 21:41.47 |    3:34.20   |       97622      |     113691
       8  | 25:15.67 |    2:22.03   |      113692      |     124344
       9  | 27:37.70 |    2:52.50   |      124345      |     137294
      10  | 30:30.45 |    2:17.07   |      137295      |     147576
      11  | 32:47.52 |   11:41.43   |      147577      |     200194
Характеристики диапазона извлечения и сообщения об ошибках
Выбранный диапазон
     Имя файла D:\The Doors\The Doors german gold\The Doors - The Doors.wav
     Пиковый уровень 100.0 %
     Скорость извлечения 1.8 X
     Качество диапазона 99.9 %
     CRC копии 9AA38B22
     Копирование... OK
Ошибок не произошло
AccurateRip: сводка
Трек  1  : извлечено точно (доверие 28)  [BA3E5FF1]  (AR v2)
Трек  2  : извлечено точно (доверие 28)  [DE8C2B6E]  (AR v2)
Трек  3  : извлечено точно (доверие 29)  [BB7603ED]  (AR v2)
Трек  4  : извлечено точно (доверие 30)  [6D54A9A1]  (AR v2)
Трек  5  : извлечено точно (доверие 28)  [12CA586B]  (AR v2)
Трек  6  : извлечено точно (доверие 28)  [94E18D46]  (AR v2)
Трек  7  : извлечено точно (доверие 29)  [A005A894]  (AR v2)
Трек  8  : извлечено точно (доверие 29)  [65067C64]  (AR v2)
Трек  9  : извлечено точно (доверие 29)  [D6C6B354]  (AR v2)
Трек 10  : извлечено точно (доверие 29)  [910A70CB]  (AR v2)
Трек 11  : извлечено точно (доверие 28)  [1FD797E3]  (AR v2)
Все треки извлечены точно
Конец отчёта
==== Контрольная сумма отчёта 4D84858AB3293BD20F1FB3DBCD281B41C144D520CF46410F6B61E1CAE33468CF ====
Matrix: 20P2-2344 11A15 +++++
Ripper: Amanasz
same as (1984) West Germany, Elektra 74007-2 (242 012) {Target CD}
Код:
Exact Audio Copy V1.0 beta 1 from 15. November 2010
EAC extraction logfile from 1. June 2011, 10:55
The Doors / The Doors
Used drive  : ASUS    DRW-24B1ST   Adapter: 1  ID: 0
Read mode               : Secure
Utilize accurate stream : Yes
Defeat audio cache      : Yes
Make use of C2 pointers : No
Read offset correction                      : 6
Overread into Lead-In and Lead-Out          : No
Fill up missing offset samples with silence : Yes
Delete leading and trailing silent blocks   : No
Null samples used in CRC calculations       : Yes
Used interface                              : Native Win32 interface for Win NT & 2000
Gap handling                                : Appended to previous track
Used output format              : User Defined Encoder
Selected bitrate                : 1024 kBit/s
Quality                         : High
Add ID3 tag                     : No
Command line compressor         : C:\Program Files\Exact Audio Copy\Flac\flac.exe
Additional command line options : -8 -V -T "ARTIST=%a" -T "TITLE=%t" -T "ALBUM=%g" -T "DATE=%y" -T "TRACKNUMBER=%n" -T "TOTALTRACKS=%x" -T "GENRE=%m" -T "ALBUMARTIST=%v" -T "ALBUM ARTIST=%v" -T "COMMENT=EAC Secure Mode, Test & Copy, AccurateRip, FLAC -8" %s
TOC of the extracted CD
     Track |   Start  |  Length  | Start sector | End sector
    ---------------------------------------------------------
        1  |  0:00.00 |  2:29.50 |         0    |    11224
        2  |  2:29.50 |  3:34.42 |     11225    |    27316
        3  |  6:04.17 |  2:34.13 |     27317    |    38879
        4  |  8:38.30 |  2:32.62 |     38880    |    50341
        5  | 11:11.17 |  3:19.10 |     50342    |    65276
        6  | 14:30.27 |  7:07.18 |     65277    |    97319
        7  | 21:37.45 |  3:33.40 |     97320    |   113334
        8  | 25:11.10 |  2:22.00 |    113335    |   123984
        9  | 27:33.10 |  2:53.15 |    123985    |   136974
       10  | 30:26.25 |  2:15.60 |    136975    |   147159
       11  | 32:42.10 | 11:43.15 |    147160    |   199899
Track  1
     Filename E:\AMANASZ\The Doors - The Doors (1967) [FLAC] {Elektra 20P2-2344}\01 - Break On Through (To The Other Side).wav
     Pre-gap length  0:00:02.00
     Peak level 72.2 %
     Extraction speed 3.0 X
     Track quality 100.0 %
     Test CRC 0BC2A136
     Copy CRC 0BC2A136
     Accurately ripped (confidence 5)  [428C1A66]
     Copy OK
Track  2
     Filename E:\AMANASZ\The Doors - The Doors (1967) [FLAC] {Elektra 20P2-2344}\02 - Soul Kitchen.wav
     Pre-gap length  0:00:02.73
     Peak level 70.5 %
     Extraction speed 3.6 X
     Track quality 100.0 %
     Test CRC 9908C63A
     Copy CRC 9908C63A
     Accurately ripped (confidence 5)  [770110A3]
     Copy OK
Track  3
     Filename E:\AMANASZ\The Doors - The Doors (1967) [FLAC] {Elektra 20P2-2344}\03 - The Crystal Ship.wav
     Pre-gap length  0:00:01.57
     Peak level 72.0 %
     Extraction speed 3.6 X
     Track quality 100.0 %
     Test CRC 98C5796E
     Copy CRC 98C5796E
     Accurately ripped (confidence 5)  [79BAE1AA]
     Copy OK
Track  4
     Filename E:\AMANASZ\The Doors - The Doors (1967) [FLAC] {Elektra 20P2-2344}\04 - Twentieth Century Fox.wav
     Pre-gap length  0:00:03.00
     Peak level 79.4 %
     Extraction speed 3.8 X
     Track quality 100.0 %
     Test CRC 6BEB4C27
     Copy CRC 6BEB4C27
     Accurately ripped (confidence 5)  [1A82806F]
     Copy OK
Track  5
     Filename E:\AMANASZ\The Doors - The Doors (1967) [FLAC] {Elektra 20P2-2344}\05 - Alabama Song (Whisky Bar).wav
     Pre-gap length  0:00:01.50
     Peak level 71.7 %
     Extraction speed 4.2 X
     Track quality 100.0 %
     Test CRC 2F3C0C1F
     Copy CRC 2F3C0C1F
     Accurately ripped (confidence 5)  [B0DC36C6]
     Copy OK
Track  6
     Filename E:\AMANASZ\The Doors - The Doors (1967) [FLAC] {Elektra 20P2-2344}\06 - Light My Fire.wav
     Pre-gap length  0:00:01.55
     Peak level 81.2 %
     Extraction speed 5.1 X
     Track quality 100.0 %
     Test CRC A9EADBD9
     Copy CRC A9EADBD9
     Accurately ripped (confidence 5)  [29F6BE91]
     Copy OK
Track  7
     Filename E:\AMANASZ\The Doors - The Doors (1967) [FLAC] {Elektra 20P2-2344}\07 - Back Door Man.wav
     Pre-gap length  0:00:01.25
     Peak level 81.2 %
     Extraction speed 3.9 X
     Track quality 99.9 %
     Test CRC 698D090F
     Copy CRC 698D090F
     Accurately ripped (confidence 5)  [08367236]
     Copy OK
Track  8
     Filename E:\AMANASZ\The Doors - The Doors (1967) [FLAC] {Elektra 20P2-2344}\08 - I Looked At You.wav
     Pre-gap length  0:00:01.13
     Peak level 79.4 %
     Extraction speed 4.8 X
     Track quality 100.0 %
     Test CRC 0E5BAD71
     Copy CRC 0E5BAD71
     Accurately ripped (confidence 5)  [895C6C2C]
     Copy OK
Track  9
     Filename E:\AMANASZ\The Doors - The Doors (1967) [FLAC] {Elektra 20P2-2344}\09 - End Of The Night.wav
     Pre-gap length  0:00:01.58
     Peak level 74.9 %
     Extraction speed 5.2 X
     Track quality 100.0 %
     Test CRC 229DE483
     Copy CRC 229DE483
     Accurately ripped (confidence 5)  [0FD9A202]
     Copy OK
Track 10
     Filename E:\AMANASZ\The Doors - The Doors (1967) [FLAC] {Elektra 20P2-2344}\10 - Take It As It Comes.wav
     Pre-gap length  0:00:02.20
     Peak level 81.2 %
     Extraction speed 3.5 X
     Track quality 99.9 %
     Test CRC 798C8C97
     Copy CRC 798C8C97
     Accurately ripped (confidence 5)  [A5B7F493]
     Copy OK
Track 11
     Filename E:\AMANASZ\The Doors - The Doors (1967) [FLAC] {Elektra 20P2-2344}\11 - The End.wav
     Pre-gap length  0:00:00.65
     Peak level 79.4 %
     Extraction speed 6.6 X
     Track quality 100.0 %
     Test CRC 8564C1F1
     Copy CRC 8564C1F1
     Accurately ripped (confidence 5)  [DD343838]
     Copy OK
All tracks accurately ripped
No errors occurred
End of status report
==== Log checksum 2EE90FB900B870F3BE9039D55299040A27F2332E178875BABD9CE151F8303808 ====
Код:
REM GENRE Rock
REM DATE 1967
REM DISCID 970A690B
REM COMMENT "ExactAudioCopy v1.0b1"
PERFORMER "The Doors"
TITLE "The Doors"
FILE "01 - Break On Through (To The Other Side).wav" WAVE
  TRACK 01 AUDIO
    TITLE "Break On Through (To The Other Side)"
    PERFORMER "The Doors"
    INDEX 01 00:00:00
  TRACK 02 AUDIO
    TITLE "Soul Kitchen"
    PERFORMER "The Doors"
    INDEX 00 02:26:52
FILE "02 - Soul Kitchen.wav" WAVE
    INDEX 01 00:00:00
  TRACK 03 AUDIO
    TITLE "The Crystal Ship"
    PERFORMER "The Doors"
    INDEX 00 03:32:60
FILE "03 - The Crystal Ship.wav" WAVE
    INDEX 01 00:00:00
  TRACK 04 AUDIO
    TITLE "Twentieth Century Fox"
    PERFORMER "The Doors"
    INDEX 00 02:31:13
FILE "04 - Twentieth Century Fox.wav" WAVE
    INDEX 01 00:00:00
  TRACK 05 AUDIO
    TITLE "Alabama Song (Whisky Bar)"
    PERFORMER "The Doors"
    INDEX 00 02:31:12
FILE "05 - Alabama Song (Whisky Bar).wav" WAVE
    INDEX 01 00:00:00
  TRACK 06 AUDIO
    TITLE "Light My Fire"
    PERFORMER "The Doors"
    INDEX 00 03:17:30
FILE "06 - Light My Fire.wav" WAVE
    INDEX 01 00:00:00
  TRACK 07 AUDIO
    TITLE "Back Door Man"
    PERFORMER "The Doors"
    INDEX 00 07:05:68
FILE "07 - Back Door Man.wav" WAVE
    INDEX 01 00:00:00
  TRACK 08 AUDIO
    TITLE "I Looked At You"
    PERFORMER "The Doors"
    INDEX 00 03:32:27
FILE "08 - I Looked At You.wav" WAVE
    INDEX 01 00:00:00
  TRACK 09 AUDIO
    TITLE "End Of The Night"
    PERFORMER "The Doors"
    INDEX 00 02:20:17
FILE "09 - End Of The Night.wav" WAVE
    INDEX 01 00:00:00
  TRACK 10 AUDIO
    TITLE "Take It As It Comes"
    PERFORMER "The Doors"
    INDEX 00 02:50:70
FILE "10 - Take It As It Comes.wav" WAVE
    INDEX 01 00:00:00
  TRACK 11 AUDIO
    TITLE "The End"
    PERFORMER "The Doors"
    INDEX 00 02:14:70
FILE "11 - The End.wav" WAVE
    INDEX 01 00:00:00
Matrix: LASER DISC - MID 8945 - WARNER 7559-74007-2 -
Ripper: edenika
Код:
Exact Audio Copy V1.0 beta 3 from 29. August 2011
EAC extraction logfile from 17. April 2013, 19:13
The Doors / The Doors
Used drive  : HL-DT-STDVDRAM GH24NS90   Adapter: 1  ID: 1
Read mode               : Secure
Utilize accurate stream : Yes
Defeat audio cache      : Yes
Make use of C2 pointers : No
Read offset correction                      : 6
Overread into Lead-In and Lead-Out          : No
Fill up missing offset samples with silence : Yes
Delete leading and trailing silent blocks   : No
Null samples used in CRC calculations       : Yes
Used interface                              : Native Win32 interface for Win NT & 2000
Used output format : Internal WAV Routines
Sample format      : 44.100 Hz; 16 Bit; Stereo
TOC of the extracted CD
     Track |   Start  |  Length  | Start sector | End sector
    ---------------------------------------------------------
        1  |  0:00.00 |  2:30.07 |         0    |    11256
        2  |  2:30.07 |  3:34.74 |     11257    |    27380
        3  |  6:05.06 |  2:34.63 |     27381    |    38993
        4  |  8:39.69 |  2:33.63 |     38994    |    50531
        5  | 11:13.57 |  3:20.02 |     50532    |    65533
        6  | 14:33.59 |  7:08.20 |     65534    |    97653
        7  | 21:42.04 |  3:34.22 |     97654    |   113725
        8  | 25:16.26 |  2:22.03 |    113726    |   124378
        9  | 27:38.29 |  2:52.48 |    124379    |   137326
       10  | 30:31.02 |  2:17.07 |    137327    |   147608
       11  | 32:48.09 | 11:43.44 |    147609    |   200377
Range status and errors
Selected range
     Filename C:\Music CD\The Doors - The Doors.wav
     Peak level 100.0 %
     Extraction speed 1.7 X
     Range quality 100.0 %
     Test CRC 9B2AC4E3
     Copy CRC 9B2AC4E3
     Copy OK
No errors occurred
AccurateRip summary
Track  1  accurately ripped (confidence 2)  [39904966]  (AR v1)
Track  2  accurately ripped (confidence 2)  [7D1C4068]  (AR v1)
Track  3  accurately ripped (confidence 2)  [8C8AA312]  (AR v1)
Track  4  accurately ripped (confidence 2)  [1D0FA6CA]  (AR v1)
Track  5  accurately ripped (confidence 2)  [DF3C9A6C]  (AR v1)
Track  6  accurately ripped (confidence 2)  [9AFB8F30]  (AR v1)
Track  7  accurately ripped (confidence 2)  [E048202E]  (AR v1)
Track  8  accurately ripped (confidence 2)  [5916979F]  (AR v1)
Track  9  accurately ripped (confidence 2)  [99BE58D5]  (AR v1)
Track 10  accurately ripped (confidence 2)  [1D31C64E]  (AR v1)
Track 11  accurately ripped (confidence 2)  [A4EAAD31]  (AR v1)
All tracks accurately ripped
End of status report
==== Log checksum F3E545DC6F8AE8FDFBA725B4ABC83973BA17B27F86C23AC29C9A11E5740A5BD8 ====
Matrix: GZS1023-2 :: IFPI L125 MASTERED BY NIMBUS IFPI L125
Ripper: havefun6699
Код:
Exact Audio Copy V1.0 beta 3 from 29. August 2011
Отчёт EAC об извлечении, выполненном 9. января 2014, 18:38
The Doors / The Doors (DCC Gold GZS-1023)
Дисковод: MATSHITADVD-RAM UJ8B1AS   Adapter: 0  ID: 1
Режим чтения                 : Достоверность
Использование точного потока : Да
Отключение кэша аудио        : Да
Использование указателей C2  : Нет
Коррекция смещения при чтении                     : 6
Способность читать области Lead-in и Lead-out     : Нет
Заполнение пропущенных сэмплов тишиной            : Да
Удаление блоков с тишиной в начале и конце        : Нет
При вычислениях CRC использовались нулевые сэмплы : Да
Интерфейс                                         : Встроенный Win32-интерфейс для Win NT/2000
Выходной формат          : Пользовательский кодировщик
Выбранный битрейт        : 768 kBit/s
Качество                 : Высокий
Добавление ID3-тега      : Нет
Утилита сжатия           : C:\Program Files (x86)\Exact Audio Copy\FLAC\FLAC.EXE
Дополнительные параметры : -6 -V -T "ARTIST=%artist%" -T "TITLE=%title%" -T "ALBUM=%albumtitle%" -T "DATE=%year%" -T "TRACKNUMBER=%tracknr%" -T "GENRE=%genre%" -T "COMMENT=%comment%" -T "BAND=%albuminterpret%" -T "COMPOSER=%composer%" %haslyrics%--tag-from-file=LYRICS="%lyricsfile%"%haslyrics% -T "DISCNUMBER=%cdnumber%" -T "TOTALDISCS=%totalcds%" -T "TOTALTRACKS=%numtracks%" %hascover%--picture="%coverfile%"%hascover% %source% -o %dest%
TOC извлечённого CD
     Трек |   Старт  | Длительность | Начальный сектор | Конечный сектор
    ---------------------------------------------------------------------
       1  |  0:00.00 |    2:29.05   |           0      |      11179
       2  |  2:29.05 |    3:34.15   |       11180      |      27244
       3  |  6:03.20 |    2:35.42   |       27245      |      38911
       4  |  8:38.62 |    2:34.13   |       38912      |      50474
       5  | 11:13.00 |    3:19.42   |       50475      |      65441
       6  | 14:32.42 |    7:08.18   |       65442      |      97559
       7  | 21:40.60 |    3:34.22   |       97560      |     113631
       8  | 25:15.07 |    2:22.20   |      113632      |     124301
       9  | 27:37.27 |    2:52.18   |      124302      |     137219
      10  | 30:29.45 |    2:17.50   |      137220      |     147544
      11  | 32:47.20 |   11:42.30   |      147545      |     200224
Характеристики диапазона извлечения и сообщения об ошибках
Выбранный диапазон
     Имя файла D:\Gh@nz3\Doors 1967 Doors(1st album) DCC US GZS 1023 GOLD CD, slipcase\The Doors - The Doors (DCC Gold GZS-1023).wav
     Пиковый уровень 100.0 %
     Скорость извлечения 4.1 X
     Качество диапазона 100.0 %
     CRC теста F6576487
     CRC копии F6576487
     Копирование... OK
Ошибок не произошло
AccurateRip: сводка
Трек  1  : извлечено точно (доверие 12)  [B91240D5]  (AR v2)
Трек  2  : извлечено точно (доверие 12)  [71F0529B]  (AR v2)
Трек  3  : извлечено точно (доверие 12)  [396C7208]  (AR v2)
Трек  4  : извлечено точно (доверие 12)  [7C3B9ED7]  (AR v2)
Трек  5  : извлечено точно (доверие 12)  [13C75DC9]  (AR v2)
Трек  6  : извлечено точно (доверие 12)  [E953FE36]  (AR v2)
Трек  7  : извлечено точно (доверие 12)  [195720AD]  (AR v2)
Трек  8  : извлечено точно (доверие 12)  [C4AC9681]  (AR v2)
Трек  9  : извлечено точно (доверие 12)  [19AB7612]  (AR v2)
Трек 10  : извлечено точно (доверие 12)  [F2849AB6]  (AR v2)
Трек 11  : извлечено точно (доверие 12)  [E2F85154]  (AR v2)
Все треки извлечены точно
Конец отчёта
==== Контрольная сумма отчёта 4FB42C6CD16D7071E0EF59AC6802DC4B00D68C785D3F5D00404CAB4BBA5F2767 ====
Matrix: 2 74007-2 SRC**09 M1S14 IFPI 206Y
Ripper: виктор юрьевич
same as (1988-09-22) Germany, Elektra 974 007-2 {Gold CD}
Код:
Exact Audio Copy V0.99 prebeta 5 from 4. May 2009
Отчёт EAC об извлечении, выполненном 4. апреля 2010, 19:34
Doors / The Doors
Дисковод: Optiarc DVD RW AD-7200S   Adapter: 2  ID: 0
Режим чтения                 : Достоверность
Использование точного потока : Да
Отключение кэша аудио        : Да
Использование указателей C2  : Нет
Коррекция смещения при чтении                     : 48
Способность читать области Lead-in и Lead-out     : Нет
Заполнение пропущенных сэмплов тишиной            : Да
Удаление блоков с тишиной в начале и конце        : Нет
При вычислениях CRC использовались нулевые сэмплы : Да
Интерфейс                                         : Установленный внешний ASPI-интерфейс
Выходной формат : Внутренние WAV-операции
Формат сэмплов  : 44.100 Гц; 16 бит; стерео
TOC извлечённого CD
     Трек |   Старт  | Длительность | Начальный сектор | Конечный сектор
    ---------------------------------------------------------------------
       1  |  0:00.32 |    2:29.15   |          32      |      11221
       2  |  2:29.47 |    3:34.73   |       11222      |      27344
       3  |  6:04.45 |    2:34.62   |       27345      |      38956
       4  |  8:39.32 |    2:33.65   |       38957      |      50496
       5  | 11:13.22 |    3:20.03   |       50497      |      65499
       6  | 14:33.25 |    7:08.22   |       65500      |      97621
       7  | 21:41.47 |    3:34.20   |       97622      |     113691
       8  | 25:15.67 |    2:22.03   |      113692      |     124344
       9  | 27:37.70 |    2:52.50   |      124345      |     137294
      10  | 30:30.45 |    2:17.07   |      137295      |     147576
      11  | 32:47.52 |   11:41.43   |      147577      |     200194
Характеристики диапазона извлечения и сообщения об ошибках
Выбранный диапазон
     Имя файла E:\МОИ РАЗДАЧИ\The Doors - The Doors 1988\Doors - The Doors.wav
     Пиковый уровень 100.0 %
     Качество диапазона 100.0 %
     CRC копии 1B7EBE8C
     Копирование... OK
Ошибок не произошло
AccurateRip: сводка
Трек  1  точное извлечение (доверие 75)  [E26F8448]
Трек  2  точное извлечение (доверие 75)  [8651060E]
Трек  3  точное извлечение (доверие 74)  [74FA225F]
Трек  4  точное извлечение (доверие 74)  [ED18D745]
Трек  5  точное извлечение (доверие 75)  [646AB9D3]
Трек  6  точное извлечение (доверие 76)  [6020E63C]
Трек  7  точное извлечение (доверие 78)  [3DDF3E74]
Трек  8  точное извлечение (доверие 77)  [4F2D7418]
Трек  9  точное извлечение (доверие 75)  [AC5D17A9]
Трек 10  точное извлечение (доверие 76)  [B888CF35]
Трек 11  точное извлечение (доверие 73)  [56C10F6B]
Все треки извлечены точно
Конец отчёта
Matrix: 755974007-2 WME IFPI 0537 21
Ripper: unclesandy
same as (1990) Argentina, Elektra 7559-74007-2
Код:
Exact Audio Copy V1.0 beta 3 from 29. August 2011
EAC extraction logfile from 16. October 2012, 14:55
The Doors / The Doors
Used drive  : TSSTcorpCDDVDW SH-S203B   Adapter: 2  ID: 0
Read mode               : Secure
Utilize accurate stream : Yes
Defeat audio cache      : Yes
Make use of C2 pointers : No
Read offset correction                      : 6
Overread into Lead-In and Lead-Out          : No
Fill up missing offset samples with silence : Yes
Delete leading and trailing silent blocks   : No
Null samples used in CRC calculations       : Yes
Used interface                              : Native Win32 interface for Win NT & 2000
Used output format : Internal WAV Routines
Sample format      : 44.100 Hz; 16 Bit; Stereo
TOC of the extracted CD
     Track |   Start  |  Length  | Start sector | End sector
    ---------------------------------------------------------
        1  |  0:00.00 |  2:29.20 |         0    |    11194
        2  |  2:29.20 |  3:35.00 |     11195    |    27319
        3  |  6:04.20 |  2:34.60 |     27320    |    38929
        4  |  8:39.05 |  2:33.63 |     38930    |    50467
        5  | 11:12.68 |  3:20.02 |     50468    |    65469
        6  | 14:32.70 |  7:08.20 |     65470    |    97589
        7  | 21:41.15 |  3:34.23 |     97590    |   113662
        8  | 25:15.38 |  2:22.02 |    113663    |   124314
        9  | 27:37.40 |  2:52.48 |    124315    |   137262
       10  | 30:30.13 |  2:17.07 |    137263    |   147544
       11  | 32:47.20 | 11:41.58 |    147545    |   200177
Range status and errors
Selected range
     Filename C:\Incoming\UncleSandy\The Doors - The Doors.wav
     Peak level 100.0 %
     Extraction speed 4.0 X
     Range quality 100.0 %
     Test CRC 01DC2626
     Copy CRC 01DC2626
     Copy OK
No errors occurred
AccurateRip summary
Track  1  accurately ripped (confidence 23)  [2729C04C]  (AR v2)
Track  2  accurately ripped (confidence 23)  [95CDF960]  (AR v2)
Track  3  accurately ripped (confidence 25)  [28365AFE]  (AR v2)
Track  4  accurately ripped (confidence 25)  [CE126D39]  (AR v2)
Track  5  accurately ripped (confidence 25)  [B99B7DA9]  (AR v2)
Track  6  accurately ripped (confidence 24)  [FB2DFD26]  (AR v2)
Track  7  accurately ripped (confidence 24)  [ED58B5E6]  (AR v2)
Track  8  accurately ripped (confidence 25)  [C3D3976E]  (AR v2)
Track  9  accurately ripped (confidence 24)  [D646EA95]  (AR v2)
Track 10  accurately ripped (confidence 24)  [A43AEE56]  (AR v2)
Track 11  accurately ripped (confidence 24)  [125F2B1D]  (AR v2)
All tracks accurately ripped
End of status report
==== Log checksum 54C2260A3C38D3E8F980C8093B337475D371827CD1FC99B29437D9DB42AE4E5E ====
Matrix: IFPI L275 AMCY-3040 1
Ripper: wwf
same as (1990) Argentina, Elektra 7559-74007-2
Код:
Exact Audio Copy V0.99 prebeta 2 from 28. July 2007
Отчёт EAC об извлечении, выполненном 21. апреля 2008, 8:43
The Doors / The Doors
Дисковод: TEAC    DV-W58G-A   Adapter: 0  ID: 0
Режим чтения                 : Достоверность
Использование точного потока : Да
Отключение кэша аудио        : Да
Использование указателей C2  : Нет
Коррекция смещения при чтении                     : 12
Способность читать области Lead-in и Lead-out     : Нет
Заполнение пропущенных сэмплов тишиной            : Да
Удаление блоков с тишиной в начале и конце        : Нет
При вычислениях CRC использовались нулевые сэмплы : Да
Интерфейс                                         : Установленный внешний ASPI-интерфейс
Выходной формат : Внутренние WAV-операции
Формат сэмплов  : 44.100 Гц; 16 бит; стерео
TOC извлечённого CD
     Трек |   Старт  | Длительность | Начальный сектор | Конечный сектор
    ---------------------------------------------------------------------
       1  |  0:00.00 |    2:29.65   |           0      |      11239
       2  |  2:29.65 |    3:35.02   |       11240      |      27366
       3  |  6:04.67 |    2:34.60   |       27367      |      38976
       4  |  8:39.52 |    2:33.63   |       38977      |      50514
       5  | 11:13.40 |    3:20.02   |       50515      |      65516
       6  | 14:33.42 |    7:08.28   |       65517      |      97644
       7  | 21:41.70 |    3:34.20   |       97645      |     113714
       8  | 25:16.15 |    2:22.00   |      113715      |     124364
       9  | 27:38.15 |    2:52.50   |      124365      |     137314
      10  | 30:30.65 |    2:17.07   |      137315      |     147596
      11  | 32:47.72 |   11:42.00   |      147597      |     200246
Характеристики диапазона извлечения и сообщения об ошибках
Выбранный диапазон
     Имя файла D:\EAC Obraz\The Doors - The Doors.wav
     Пиковый уровень 100.0 %
     Качество диапазона 100.0 %
     CRC копии D4D532E1
     Копирование... OK
Ошибок не произошло
Конец отчёта
Matrix: IFPI L274 WPCR-75073 1
Ripper: dafnaplus
Код:
Exact Audio Copy V1.0 beta 3 from 29. August 2011
EAC extraction logfile from 29. May 2014, 23:31
The Doors / The Doors (WPCR-75073)
Used drive  : PLEXTOR DVDR   PX-891SA   Adapter: 3  ID: 0
Read mode               : Secure
Utilize accurate stream : Yes
Defeat audio cache      : Yes
Make use of C2 pointers : No
Read offset correction                      : 6
Overread into Lead-In and Lead-Out          : No
Fill up missing offset samples with silence : Yes
Delete leading and trailing silent blocks   : No
Null samples used in CRC calculations       : Yes
Used interface                              : Native Win32 interface for Win NT & 2000
Used output format              : User Defined Encoder
Selected bitrate                : 1024 kBit/s
Quality                         : High
Add ID3 tag                     : No
Command line compressor         : C:\Program Files\Exact Audio Copy\Flac\flac.exe
Additional command line options : -V -8 -T "Genre=%genre%" -T "Artist=%artist%" -T "Title=%title%" -T "Album=%albumtitle%" -T "Date=%year%" -T "Tracknumber=%tracknr%" -T "Comment=%comment%" %source%
TOC of the extracted CD
     Track |   Start  |  Length  | Start sector | End sector
    ---------------------------------------------------------
        1  |  0:00.00 |  2:30.00 |         0    |    11249
        2  |  2:30.00 |  3:35.02 |     11250    |    27376
        3  |  6:05.02 |  2:34.62 |     27377    |    38988
        4  |  8:39.64 |  2:33.66 |     38989    |    50529
        5  | 11:13.55 |  3:20.00 |     50530    |    65529
        6  | 14:33.55 |  7:08.35 |     65530    |    97664
        7  | 21:42.15 |  3:34.15 |     97665    |   113729
        8  | 25:16.30 |  2:22.00 |    113730    |   124379
        9  | 27:38.30 |  2:52.47 |    124380    |   137326
       10  | 30:31.02 |  2:17.00 |    137327    |   147601
       11  | 32:48.02 | 11:43.28 |    147602    |   200354
Range status and errors
Selected range
     Filename H:\dafnaplus\The Doors - The Doors\The Doors - The Doors (WPCR-75073).wav
     Peak level 98.9 %
     Extraction speed 8.2 X
     Range quality 100.0 %
     Test CRC 1D9BFA55
     Copy CRC 1D9BFA55
     Copy OK
No errors occurred
AccurateRip summary
Track  1  accurately ripped (confidence 4)  [2D322810]  (AR v1)
Track  2  accurately ripped (confidence 4)  [69536806]  (AR v1)
Track  3  accurately ripped (confidence 4)  [91A7724C]  (AR v1)
Track  4  accurately ripped (confidence 4)  [992D921D]  (AR v1)
Track  5  accurately ripped (confidence 4)  [7FE75B9A]  (AR v1)
Track  6  accurately ripped (confidence 4)  [5112CD30]  (AR v1)
Track  7  accurately ripped (confidence 4)  [1CA6C955]  (AR v1)
Track  8  accurately ripped (confidence 3)  [BE931AF7]  (AR v1)
Track  9  accurately ripped (confidence 4)  [36AC3EAE]  (AR v1)
Track 10  accurately ripped (confidence 4)  [DF28CB5C]  (AR v1)
Track 11  accurately ripped (confidence 4)  [108814F8]  (AR v1)
All tracks accurately ripped
End of status report
==== Log checksum 9856089B419E80556705AB8578B9C5980C2840DEA47FB879DE465016EA152849 ====
Ripper: Kranov
Код:
Exact Audio Copy V0.99 prebeta 4 from 23. January 2008
Отчёт EAC об извлечении, выполненном 2. декабря 2008, 10:28
The Doors / The Doors [40th Anniversary Mixes]
Дисковод: ATAPI   DVD A  DH20A4H   Adapter: 0  ID: 1
Режим чтения                 : Достоверность
Использование точного потока : Да
Отключение кэша аудио        : Да
Использование указателей C2  : Нет
Коррекция смещения при чтении                     : 6
Способность читать области Lead-in и Lead-out     : Нет
Заполнение пропущенных сэмплов тишиной            : Да
Удаление блоков с тишиной в начале и конце        : Нет
При вычислениях CRC использовались нулевые сэмплы : Нет
Интерфейс                                         : Встроенный Win32-интерфейс для Win NT/2000
Выходной формат          : Пользовательский кодировщик
Выбранный битрейт        : 768 kBit/s
Качество                 : Высокий
Добавление ID3-тэга      : Нет
Утилита сжатия           : d:\Program Files\Exact Audio Copy\FLAC\FLAC.EXE
Дополнительные параметры : -6 -V -T "ARTIST=%a" -T "TITLE=%t" -T "ALBUM=%g" -T "DATE=%y" -T "TRACKNUMBER=%n" -T "GENRE=%m" -T "COMMENT=%e" %s -o %d
TOC извлечённого CD
     Трек |   Старт  | Длительность | Начальный сектор | Конечный сектор
    ---------------------------------------------------------------------
       1  |  0:00.00 |    2:28.19   |           0      |      11118
       2  |  2:28.19 |    3:33.73   |       11119      |      27166
       3  |  6:02.17 |    2:34.45   |       27167      |      38761
       4  |  8:36.62 |    2:33.61   |       38762      |      50297
       5  | 11:10.48 |    3:17.53   |       50298      |      65125
       6  | 14:28.26 |    7:00.22   |       65126      |      96647
       7  | 21:28.48 |    3:34.10   |       96648      |     112707
       8  | 25:02.58 |    2:24.35   |      112708      |     123542
       9  | 27:27.18 |    2:50.64   |      123543      |     136356
      10  | 30:18.07 |    2:19.37   |      136357      |     146818
      11  | 32:37.44 |   11:41.10   |      146819      |     199403
      12  | 44:18.54 |    2:42.25   |      199404      |     211578
      13  | 47:01.04 |    2:31.25   |      211579      |     222928
      14  | 49:32.29 |    2:35.51   |      222929      |     234604
Характеристики диапазона извлечения и сообщения об ошибках
Выбранный диапазон
     Имя файла E:\My Documents\My Music\Doors - The Doors [40th Anniversary Mixes].2007\The Doors - The Doors [40th Anniversary Mixes].wav
     Пиковый уровень 100.0 %
     Качество диапазона 99.9 %
     CRC копии 2D10DB85
     Копирование... OK
Ошибок не произошло
AccurateRip: сводка
Трек  1  точное извлечение (доверие 34)  [B98FAB90]
Трек  2  точное извлечение (доверие 33)  [43487E06]
Трек  3  точное извлечение (доверие 34)  [D06E0427]
Трек  4  точное извлечение (доверие 33)  [828209D5]
Трек  5  точное извлечение (доверие 34)  [B0B3B3D6]
Трек  6  точное извлечение (доверие 35)  [8FAECECB]
Трек  7  точное извлечение (доверие 33)  [E38B5371]
Трек  8  точное извлечение (доверие 33)  [0C760494]
Трек  9  точное извлечение (доверие 33)  [8DB7470D]
Трек 10  точное извлечение (доверие 33)  [B27AF548]
Трек 11  точное извлечение (доверие 34)  [925245F8]
Трек 12  точное извлечение (доверие 32)  [8ABEBD10]
Трек 13  точное извлечение (доверие 33)  [EF83EE9F]
Трек 14  точное извлечение (доверие 31)  [5E03C688]
Все треки извлечены точно
Конец отчёта
same as (2007-08-29) Japan, Warner Music Japan WPCR-12716 {40th Anniversary Mixes}
Код:
Exact Audio Copy V0.99 prebeta 4 from 23. January 2008
EAC extraction logfile from 28. October 2008, 16:37
The Doors / The Doors [40th Anniversary Edition]
Used drive  : TSSTcorpCD/DVDW TS-H552D   Adapter: 3  ID: 0
Read mode               : Secure
Utilize accurate stream : Yes
Defeat audio cache      : Yes
Make use of C2 pointers : No
Read offset correction                      : 6
Overread into Lead-In and Lead-Out          : No
Fill up missing offset samples with silence : Yes
Delete leading and trailing silent blocks   : No
Null samples used in CRC calculations       : Yes
Used interface                              : Installed external ASPI interface
Gap handling                                : Appended to previous track
Used output format : Internal WAV Routines
Sample format      : 44.100 Hz; 16 Bit; Stereo
TOC of the extracted CD
     Track |   Start  |  Length  | Start sector | End sector
    ---------------------------------------------------------
        1  |  0:00.00 |  2:28.19 |         0    |    11118
        2  |  2:28.19 |  3:33.73 |     11119    |    27166
        3  |  6:02.17 |  2:34.45 |     27167    |    38761
        4  |  8:36.62 |  2:33.61 |     38762    |    50297
        5  | 11:10.48 |  3:17.53 |     50298    |    65125
        6  | 14:28.26 |  7:00.22 |     65126    |    96647
        7  | 21:28.48 |  3:34.10 |     96648    |   112707
        8  | 25:02.58 |  2:24.35 |    112708    |   123542
        9  | 27:27.18 |  2:50.64 |    123543    |   136356
       10  | 30:18.07 |  2:19.37 |    136357    |   146818
       11  | 32:37.44 | 11:41.10 |    146819    |   199403
       12  | 44:18.54 |  2:42.25 |    199404    |   211578
       13  | 47:01.04 |  2:31.25 |    211579    |   222928
       14  | 49:32.29 |  2:35.51 |    222929    |   234604
Track  1
     Filename L:\Torrents\The Doors - The Doors [40th Anniversary Edition-2007] (1967) FLAC\01 - The Doors - Break On Through (To The Other Side) .wav
     Pre-gap length  0:00:02.00
     Peak level 100.0 %
     Track quality 100.0 %
     Test CRC 51C3D641
     Copy CRC 51C3D641
     Cannot be verified as accurate (confidence 4)  [9AEAFDA1], AccurateRip returned [309BFFF4]
     Copy OK
Track  2
     Filename L:\Torrents\The Doors - The Doors [40th Anniversary Edition-2007] (1967) FLAC\02 - The Doors - Soul Kitchen .wav
     Pre-gap length  0:00:02.25
     Peak level 100.0 %
     Track quality 100.0 %
     Test CRC AAABECC2
     Copy CRC AAABECC2
     Cannot be verified as accurate (confidence 4)  [5DBCFED1], AccurateRip returned [A4459F7E]
     Copy OK
Track  3
     Filename L:\Torrents\The Doors - The Doors [40th Anniversary Edition-2007] (1967) FLAC\03 - The Doors - The Crystal Ship .wav
     Pre-gap length  0:00:02.51
     Peak level 100.0 %
     Track quality 100.0 %
     Test CRC A0133ADD
     Copy CRC A0133ADD
     Cannot be verified as accurate (confidence 4)  [3613AF00], AccurateRip returned [B67496DB]
     Copy OK
Track  4
     Filename L:\Torrents\The Doors - The Doors [40th Anniversary Edition-2007] (1967) FLAC\04 - The Doors - Twentieth Century Fox .wav
     Pre-gap length  0:00:02.11
     Peak level 100.0 %
     Track quality 100.0 %
     Test CRC BB76F75A
     Copy CRC BB76F75A
     Cannot be verified as accurate (confidence 4)  [1398F00F], AccurateRip returned [9886C7F9]
     Copy OK
Track  5
     Filename L:\Torrents\The Doors - The Doors [40th Anniversary Edition-2007] (1967) FLAC\05 - The Doors - Alabama Song (Whisky Bar) .wav
     Pre-gap length  0:00:01.35
     Peak level 100.0 %
     Track quality 100.0 %
     Test CRC B74C075B
     Copy CRC B74C075B
     Cannot be verified as accurate (confidence 4)  [21C11BCF], AccurateRip returned [710E4136]
     Copy OK
Track  6
     Filename L:\Torrents\The Doors - The Doors [40th Anniversary Edition-2007] (1967) FLAC\06 - The Doors - Light My Fire .wav
     Pre-gap length  0:00:02.53
     Peak level 100.0 %
     Track quality 100.0 %
     Test CRC 9B2E1F4F
     Copy CRC 9B2E1F4F
     Cannot be verified as accurate (confidence 4)  [3BA8AE9D], AccurateRip returned [96C1DA2F]
     Copy OK
Track  7
     Filename L:\Torrents\The Doors - The Doors [40th Anniversary Edition-2007] (1967) FLAC\07 - The Doors - Back Door Man .wav
     Pre-gap length  0:00:02.13
     Peak level 100.0 %
     Track quality 100.0 %
     Test CRC 7058A214
     Copy CRC 7058A214
     Cannot be verified as accurate (confidence 4)  [A5D77D6E], AccurateRip returned [B916164D]
     Copy OK
Track  8
     Filename L:\Torrents\The Doors - The Doors [40th Anniversary Edition-2007] (1967) FLAC\08 - The Doors - I Looked At You .wav
     Pre-gap length  0:00:02.43
     Peak level 100.0 %
     Track quality 99.9 %
     Test CRC CAE75A35
     Copy CRC CAE75A35
     Cannot be verified as accurate (confidence 4)  [5E688405], AccurateRip returned [742A0158]
     Copy OK
Track  9
     Filename L:\Torrents\The Doors - The Doors [40th Anniversary Edition-2007] (1967) FLAC\09 - The Doors - End of the Night .wav
     Pre-gap length  0:00:03.41
     Peak level 100.0 %
     Track quality 100.0 %
     Test CRC B6BB44CB
     Copy CRC B6BB44CB
     Cannot be verified as accurate (confidence 4)  [DCD2494B], AccurateRip returned [BB16F515]
     Copy OK
Track 10
     Filename L:\Torrents\The Doors - The Doors [40th Anniversary Edition-2007] (1967) FLAC\10 - The Doors - Take it as it Comes .wav
     Pre-gap length  0:00:01.46
     Peak level 100.0 %
     Track quality 100.0 %
     Test CRC 5866B6D4
     Copy CRC 5866B6D4
     Cannot be verified as accurate (confidence 4)  [B3743486], AccurateRip returned [C8544270]
     Copy OK
Track 11
     Filename L:\Torrents\The Doors - The Doors [40th Anniversary Edition-2007] (1967) FLAC\11 - The Doors - The End .wav
     Pre-gap length  0:00:04.02
     Peak level 100.0 %
     Track quality 100.0 %
     Test CRC 88F7FDCA
     Copy CRC 88F7FDCA
     Cannot be verified as accurate (confidence 4)  [196197A8], AccurateRip returned [6B0ACA80]
     Copy OK
Track 12
     Filename L:\Torrents\The Doors - The Doors [40th Anniversary Edition-2007] (1967) FLAC\12 - The Doors - Moonlight Drive (Version 1) .wav
     Pre-gap length  0:00:02.06
     Peak level 96.2 %
     Track quality 100.0 %
     Test CRC 8D24FCBF
     Copy CRC 8D24FCBF
     Cannot be verified as accurate (confidence 4)  [7133D652], AccurateRip returned [72DF525C]
     Copy OK
Track 13
     Filename L:\Torrents\The Doors - The Doors [40th Anniversary Edition-2007] (1967) FLAC\13 - The Doors - Moonlight Drive (Version 2) .wav
     Pre-gap length  0:00:01.23
     Peak level 100.0 %
     Track quality 100.0 %
     Test CRC B90F35DF
     Copy CRC B90F35DF
     Cannot be verified as accurate (confidence 4)  [E0F037F2], AccurateRip returned [200729BB]
     Copy OK
Track 14
     Filename L:\Torrents\The Doors - The Doors [40th Anniversary Edition-2007] (1967) FLAC\14 - The Doors - Indian Summer (8-19-66 Vocal) .wav
     Pre-gap length  0:00:01.58
     Peak level 79.1 %
     Track quality 100.0 %
     Test CRC 0B456316
     Copy CRC 0B456316
     Cannot be verified as accurate (confidence 4)  [9F36D79D], AccurateRip returned [20552FDC]
     Copy OK
No tracks could be verified as accurate
You may have a different pressing from the one(s) in the database
No errors occurred
End of status report
Код:
REM GENRE Rock
REM DATE 1967
REM DISCID C10C380E
REM COMMENT "ExactAudioCopy v0.99pb4"
PERFORMER "The Doors"
TITLE "The Doors [40th Anniversary Edition]"
FILE "01 - The Doors - Break On Through (To The Other Side) .flac" WAVE
  TRACK 01 AUDIO
    TITLE "Break On Through (To The Other Side)"
    PERFORMER "The Doors"
    INDEX 01 00:00:00
  TRACK 02 AUDIO
    TITLE "Soul Kitchen"
    PERFORMER "The Doors"
    INDEX 00 02:25:69
FILE "02 - The Doors - Soul Kitchen .flac" WAVE
    INDEX 01 00:00:00
  TRACK 03 AUDIO
    TITLE "The Crystal Ship"
    PERFORMER "The Doors"
    INDEX 00 03:31:22
FILE "03 - The Doors - The Crystal Ship .flac" WAVE
    INDEX 01 00:00:00
  TRACK 04 AUDIO
    TITLE "Twentieth Century Fox"
    PERFORMER "The Doors"
    INDEX 00 02:32:34
FILE "04 - The Doors - Twentieth Century Fox .flac" WAVE
    INDEX 01 00:00:00
  TRACK 05 AUDIO
    TITLE "Alabama Song (Whisky Bar)"
    PERFORMER "The Doors"
    INDEX 00 02:32:26
FILE "05 - The Doors - Alabama Song (Whisky Bar) .flac" WAVE
    INDEX 01 00:00:00
  TRACK 06 AUDIO
    TITLE "Light My Fire"
    PERFORMER "The Doors"
    INDEX 00 03:15:00
FILE "06 - The Doors - Light My Fire .flac" WAVE
    INDEX 01 00:00:00
  TRACK 07 AUDIO
    TITLE "Back Door Man"
    PERFORMER "The Doors"
    INDEX 00 06:58:09
FILE "07 - The Doors - Back Door Man .flac" WAVE
    INDEX 01 00:00:00
  TRACK 08 AUDIO
    TITLE "I Looked At You"
    PERFORMER "The Doors"
    INDEX 00 03:31:42
FILE "08 - The Doors - I Looked At You .flac" WAVE
    INDEX 01 00:00:00
  TRACK 09 AUDIO
    TITLE "End of the Night"
    PERFORMER "The Doors"
    INDEX 00 02:20:69
FILE "09 - The Doors - End of the Night .flac" WAVE
    INDEX 01 00:00:00
  TRACK 10 AUDIO
    TITLE "Take it as it Comes"
    PERFORMER "The Doors"
    INDEX 00 02:49:18
FILE "10 - The Doors - Take it as it Comes .flac" WAVE
    INDEX 01 00:00:00
  TRACK 11 AUDIO
    TITLE "The End"
    PERFORMER "The Doors"
    INDEX 00 02:15:35
FILE "11 - The Doors - The End .flac" WAVE
    INDEX 01 00:00:00
  TRACK 12 AUDIO
    TITLE "Moonlight Drive (Version 1)"
    PERFORMER "The Doors"
    INDEX 00 11:39:04
FILE "12 - The Doors - Moonlight Drive (Version 1) .flac" WAVE
    INDEX 01 00:00:00
  TRACK 13 AUDIO
    TITLE "Moonlight Drive (Version 2)"
    PERFORMER "The Doors"
    INDEX 00 02:41:02
FILE "13 - The Doors - Moonlight Drive (Version 2) .flac" WAVE
    INDEX 01 00:00:00
  TRACK 14 AUDIO
    TITLE "Indian Summer (8-19-66 Vocal)"
    PERFORMER "The Doors"
    INDEX 00 02:29:42
FILE "14 - The Doors - Indian Summer (8-19-66 Vocal) .flac" WAVE
    INDEX 01 00:00:00
Код:
Exact Audio Copy V0.99 prebeta 4 from 23. January 2008
Отчёт EAC об извлечении, выполненном 19. июня 2009, 10:03
The Doors / The Doors
Дисковод: PLEXTOR DVD-ROM PX-116A2   Adapter: 3  ID: 0
Режим чтения                 : Достоверность
Использование точного потока : Да
Отключение кэша аудио        : Да
Использование указателей C2  : Нет
Коррекция смещения при чтении                     : 102
Способность читать области Lead-in и Lead-out     : Нет
Заполнение пропущенных сэмплов тишиной            : Да
Удаление блоков с тишиной в начале и конце        : Нет
При вычислениях CRC использовались нулевые сэмплы : Да
Интерфейс                                         : Встроенный Win32-интерфейс для Win NT/2000
Выходной формат : Внутренние WAV-операции
Формат сэмплов  : 44.100 Гц; 16 бит; стерео
TOC извлечённого CD
     Трек |   Старт  | Длительность | Начальный сектор | Конечный сектор
    ---------------------------------------------------------------------
       1  |  0:00.00 |    2:28.44   |           0      |      11143
       2  |  2:28.44 |    3:33.73   |       11144      |      27191
       3  |  6:02.42 |    2:34.45   |       27192      |      38786
       4  |  8:37.12 |    2:33.61   |       38787      |      50322
       5  | 11:10.73 |    3:17.53   |       50323      |      65150
       6  | 14:28.51 |    7:00.22   |       65151      |      96672
       7  | 21:28.73 |    3:34.10   |       96673      |     112732
       8  | 25:03.08 |    2:24.35   |      112733      |     123567
       9  | 27:27.43 |    2:50.64   |      123568      |     136381
      10  | 30:18.32 |    2:19.37   |      136382      |     146843
      11  | 32:37.69 |   11:41.10   |      146844      |     199428
      12  | 44:19.04 |    2:42.25   |      199429      |     211603
      13  | 47:01.29 |    2:31.25   |      211604      |     222953
      14  | 49:32.54 |    2:36.01   |      222954      |     234654
Характеристики диапазона извлечения и сообщения об ошибках
Выбранный диапазон
     Имя файла C:\1_MUSIC\Lossless\The Doors - The Doors\The Doors - The Doors.wav
     Пиковый уровень 100.0 %
     Качество диапазона 99.9 %
     CRC копии CA6CA342
     Копирование... OK
Ошибок не произошло
AccurateRip: сводка
Трек  1  точное извлечение (доверие 5)  [CC272001]
Трек  2  точное извлечение (доверие 5)  [33AF9DCD]
Трек  3  точное извлечение (доверие 5)  [04214380]
Трек  4  точное извлечение (доверие 5)  [1C0A5B37]
Трек  5  точное извлечение (доверие 5)  [31368317]
Трек  6  точное извлечение (доверие 6)  [7F2F1D4D]
Трек  7  точное извлечение (доверие 5)  [57207CA2]
Трек  8  точное извлечение (доверие 4)  [18C9AB1D]
Трек  9  точное извлечение (доверие 4)  [B852F5E3]
Трек 10  точное извлечение (доверие 4)  [C3A4C836]
Трек 11  точное извлечение (доверие 5)  [1186FB64]
Трек 12  точное извлечение (доверие 5)  [D02ADFCE]
Трек 13  точное извлечение (доверие 5)  [BF971006]
Трек 14  точное извлечение (доверие 5)  [BCCC07CB]
Все треки извлечены точно
Конец отчёта
#777Tracklist:
1. Strange days
2. Youre lost little girl
3. Love me two times
4. Unhappy girl
5. Horse latitudes
6. Moonlight drive
7. People are strange
8. My eyes have seen you
9. I can't see your face in my mind
10. When the musics over
'40th Anniversary Mixes' Bonus Tracks
11. People Are Strange (false starts & dialogue)
12. Love Me Two Times (take 3)
Matrix: 74014-2 60306J MANUFACTURED BY SANYO JAPAN
Ripper: havefun6699
same as (1985-08-00) West Germany, Elektra 9 74014-2
Код:
Exact Audio Copy V1.0 beta 3 from 29. August 2011
Отчёт EAC об извлечении, выполненном 20. октября 2013, 21:02
Doors / Strange Days
Дисковод: MATSHITADVD-RAM UJ8B1AS   Adapter: 0  ID: 1
Режим чтения                 : Достоверность
Использование точного потока : Да
Отключение кэша аудио        : Да
Использование указателей C2  : Нет
Коррекция смещения при чтении                     : 6
Способность читать области Lead-in и Lead-out     : Нет
Заполнение пропущенных сэмплов тишиной            : Да
Удаление блоков с тишиной в начале и конце        : Нет
При вычислениях CRC использовались нулевые сэмплы : Да
Интерфейс                                         : Встроенный Win32-интерфейс для Win NT/2000
Выходной формат          : Пользовательский кодировщик
Выбранный битрейт        : 768 kBit/s
Качество                 : Высокий
Добавление ID3-тега      : Нет
Утилита сжатия           : C:\Program Files (x86)\Exact Audio Copy\FLAC\FLAC.EXE
Дополнительные параметры : -6 -V -T "ARTIST=%artist%" -T "TITLE=%title%" -T "ALBUM=%albumtitle%" -T "DATE=%year%" -T "TRACKNUMBER=%tracknr%" -T "GENRE=%genre%" -T "COMMENT=%comment%" -T "BAND=%albuminterpret%" -T "COMPOSER=%composer%" %haslyrics%--tag-from-file=LYRICS="%lyricsfile%"%haslyrics% -T "DISCNUMBER=%cdnumber%" -T "TOTALDISCS=%totalcds%" -T "TOTALTRACKS=%numtracks%" %hascover%--picture="%coverfile%"%hascover% %source% -o %dest%
TOC извлечённого CD
     Трек |   Старт  | Длительность | Начальный сектор | Конечный сектор
    ---------------------------------------------------------------------
       1  |  0:00.00 |    3:07.72   |           0      |      14096
       2  |  3:07.72 |    3:02.00   |       14097      |      27746
       3  |  6:09.72 |    3:15.70   |       27747      |      42441
       4  |  9:25.67 |    1:58.30   |       42442      |      51321
       5  | 11:24.22 |    1:34.53   |       51322      |      58424
       6  | 12:59.00 |    3:03.17   |       58425      |      72166
       7  | 16:02.17 |    2:11.45   |       72167      |      82036
       8  | 18:13.62 |    2:28.58   |       82037      |      93194
       9  | 20:42.45 |    3:25.55   |       93195      |     108624
      10  | 24:08.25 |   10:55.17   |      108625      |     157766
Характеристики диапазона извлечения и сообщения об ошибках
Выбранный диапазон
     Имя файла D:\Gh@nz\ALBUMS\Doors 1968 Strange Days Elektra USJapan 9 74014-2\Doors - Strange Days.wav
     Пиковый уровень 89.1 %
     Скорость извлечения 3.7 X
     Качество диапазона 99.9 %
     CRC теста A2F684D5
     CRC копии A2F684D5
     Копирование... OK
Ошибок не произошло
AccurateRip: сводка
Трек  1  : извлечено точно (доверие 2)  [045D1345]  (AR v2)
Трек  2  : извлечено точно (доверие 2)  [8F2C4E41]  (AR v2)
Трек  3  : извлечено точно (доверие 2)  [B9C5AB79]  (AR v2)
Трек  4  : извлечено точно (доверие 2)  [F3097482]  (AR v2)
Трек  5  : извлечено точно (доверие 2)  [8551390B]  (AR v2)
Трек  6  : извлечено точно (доверие 2)  [5439D1C3]  (AR v2)
Трек  7  : извлечено точно (доверие 2)  [BE1A2C80]  (AR v2)
Трек  8  : извлечено точно (доверие 2)  [7508A506]  (AR v2)
Трек  9  : извлечено точно (доверие 2)  [C37C7283]  (AR v2)
Трек 10  : извлечено точно (доверие 6)  [24283AEA]  (AR v1)
Все треки извлечены точно
Конец отчёта
==== Контрольная сумма отчёта D5E1273E1FC76F7319449AEC9AA184D14DFC66005FA8E5825FE2FBE016DBCD24 ====
Matrix: 7559 74014-2 2895 386 01 # AE
Ripper: havefun6699
Код:
Exact Audio Copy V1.0 beta 3 from 29. August 2011
Отчёт EAC об извлечении, выполненном 20. октября 2013, 22:14
The Doors / Strange Days
Дисковод: MATSHITADVD-RAM UJ8B1AS   Adapter: 0  ID: 1
Режим чтения                 : Достоверность
Использование точного потока : Да
Отключение кэша аудио        : Да
Использование указателей C2  : Нет
Коррекция смещения при чтении                     : 6
Способность читать области Lead-in и Lead-out     : Нет
Заполнение пропущенных сэмплов тишиной            : Да
Удаление блоков с тишиной в начале и конце        : Нет
При вычислениях CRC использовались нулевые сэмплы : Да
Интерфейс                                         : Встроенный Win32-интерфейс для Win NT/2000
Выходной формат          : Пользовательский кодировщик
Выбранный битрейт        : 768 kBit/s
Качество                 : Высокий
Добавление ID3-тега      : Нет
Утилита сжатия           : C:\Program Files (x86)\Exact Audio Copy\FLAC\FLAC.EXE
Дополнительные параметры : -6 -V -T "ARTIST=%artist%" -T "TITLE=%title%" -T "ALBUM=%albumtitle%" -T "DATE=%year%" -T "TRACKNUMBER=%tracknr%" -T "GENRE=%genre%" -T "COMMENT=%comment%" -T "BAND=%albuminterpret%" -T "COMPOSER=%composer%" %haslyrics%--tag-from-file=LYRICS="%lyricsfile%"%haslyrics% -T "DISCNUMBER=%cdnumber%" -T "TOTALDISCS=%totalcds%" -T "TOTALTRACKS=%numtracks%" %hascover%--picture="%coverfile%"%hascover% %source% -o %dest%
TOC извлечённого CD
     Трек |   Старт  | Длительность | Начальный сектор | Конечный сектор
    ---------------------------------------------------------------------
       1  |  0:00.33 |    3:07.72   |          33      |      14129
       2  |  3:08.30 |    3:02.00   |       14130      |      27779
       3  |  6:10.30 |    3:15.70   |       27780      |      42474
       4  |  9:26.25 |    1:58.30   |       42475      |      51354
       5  | 11:24.55 |    1:34.53   |       51355      |      58457
       6  | 12:59.33 |    3:03.17   |       58458      |      72199
       7  | 16:02.50 |    2:11.45   |       72200      |      82069
       8  | 18:14.20 |    2:28.58   |       82070      |      93227
       9  | 20:43.03 |    3:25.55   |       93228      |     108657
      10  | 24:08.58 |   10:55.30   |      108658      |     157812
Характеристики диапазона извлечения и сообщения об ошибках
Выбранный диапазон
     Имя файла D:\Gh@nz\ALBUMS\Doors 1968 Strange Days Elektra Germany 74014-2\The Doors - Strange Days.wav
     Пиковый уровень 89.1 %
     Скорость извлечения 2.5 X
     Качество диапазона 100.0 %
     CRC теста FB0100C9
     CRC копии FB0100C9
     Копирование... OK
Ошибок не произошло
AccurateRip: сводка
Трек  1  : извлечено точно (доверие 9)  [DBAAAE0F]  (AR v2)
Трек  2  : извлечено точно (доверие 9)  [11EC5E31]  (AR v2)
Трек  3  : извлечено точно (доверие 9)  [48F3FC79]  (AR v2)
Трек  4  : извлечено точно (доверие 9)  [1170D4ED]  (AR v2)
Трек  5  : извлечено точно (доверие 9)  [B9D54A50]  (AR v2)
Трек  6  : извлечено точно (доверие 9)  [06B497DF]  (AR v2)
Трек  7  : извлечено точно (доверие 9)  [E1FD398F]  (AR v2)
Трек  8  : извлечено точно (доверие 9)  [3E01E1D4]  (AR v2)
Трек  9  : извлечено точно (доверие 9)  [E384C406]  (AR v2)
Трек 10  : извлечено точно (доверие 9)  [95128A5D]  (AR v2)
Все треки извлечены точно
Конец отчёта
==== Контрольная сумма отчёта AB9E6B367635DF87B72EDC67B42CC58D6CFA37C374618C6D491F0ADF85B07657 ====
Matrix: 32XD-401 11A1 +++++
Ripper: havefun6699
same as (1985-08-00) West Germany, Elektra 9 74014-2
Код:
Exact Audio Copy V1.0 beta 2 from 29. April 2011
Отчёт EAC об извлечении, выполненном 24. октября 2012, 10:05
The Doors / Strange Days
Дисковод: MATSHITADVD-RAM UJ8B1AS   Adapter: 0  ID: 1
Режим чтения                 : Достоверность
Использование точного потока : Да
Отключение кэша аудио        : Да
Использование указателей C2  : Нет
Коррекция смещения при чтении                     : 6
Способность читать области Lead-in и Lead-out     : Нет
Заполнение пропущенных сэмплов тишиной            : Да
Удаление блоков с тишиной в начале и конце        : Нет
При вычислениях CRC использовались нулевые сэмплы : Нет
Интерфейс                                         : Встроенный Win32-интерфейс для Win NT/2000
Выходной формат          : Пользовательский кодировщик
Выбранный битрейт        : 768 kBit/s
Качество                 : Высокий
Добавление ID3-тега      : Нет
Утилита сжатия           : C:\Program Files (x86)\Exact Audio Copy\FLAC\FLAC.EXE
Дополнительные параметры : -6 -V -T "ARTIST=%artist%" -T "TITLE=%title%" -T "ALBUM=%albumtitle%" -T "DATE=%year%" -T "TRACKNUMBER=%tracknr%" -T "GENRE=%genre%" -T "COMMENT=%comment%" -T "BAND=%albuminterpret%" -T "COMPOSER=%composer%" %haslyrics%--tag-from-
TOC извлечённого CD
     Трек |   Старт  | Длительность | Начальный сектор | Конечный сектор
    ---------------------------------------------------------------------
       1  |  0:00.00 |    3:08.35   |           0      |      14134
       2  |  3:08.35 |    3:02.00   |       14135      |      27784
       3  |  6:10.35 |    3:15.70   |       27785      |      42479
       4  |  9:26.30 |    1:58.30   |       42480      |      51359
       5  | 11:24.60 |    1:34.52   |       51360      |      58461
       6  | 12:59.37 |    3:03.18   |       58462      |      72204
       7  | 16:02.55 |    2:11.45   |       72205      |      82074
       8  | 18:14.25 |    2:28.57   |       82075      |      93231
       9  | 20:43.07 |    3:25.55   |       93232      |     108661
      10  | 24:08.62 |   10:55.43   |      108662      |     157829
Характеристики диапазона извлечения и сообщения об ошибках
Выбранный диапазон
     Имя файла D:\The Doors\Strange Days 32XD-401\The Doors - Strange Days.wav
     Пиковый уровень 89.1 %
     Скорость извлечения 1.7 X
     Качество диапазона 100.0 %
     CRC копии E1676097
     Копирование... OK
Ошибок не произошло
AccurateRip: сводка
Трек  1  точность не определена (достоверность 3)  [9C467AED], AccurateRip вернул [711707A0]  (AR v2)
Трек  2  точность не определена (достоверность 3)  [1B383743], AccurateRip вернул [241B5F07]  (AR v2)
Трек  3  точность не определена (достоверность 2)  [B1179C36], AccurateRip вернул [634F4DBF]  (AR v2)
Трек  4  точность не определена (достоверность 3)  [25C02AA4], AccurateRip вернул [2ABFD8F3]  (AR v2)
Трек  5  точность не определена (достоверность 3)  [14C962F7], AccurateRip вернул [60A7A91C]  (AR v2)
Трек  6  точность не определена (достоверность 3)  [AFEE8989], AccurateRip вернул [D454609C]  (AR v2)
Трек  7  точность не определена (достоверность 3)  [66A886D4], AccurateRip вернул [2FACF794]  (AR v2)
Трек  8  точность не определена (достоверность 3)  [BC68C618], AccurateRip вернул [97ACD7EA]  (AR v2)
Трек  9  точность не определена (достоверность 3)  [E7F9D421], AccurateRip вернул [7576FF20]  (AR v2)
Трек 10  точность не определена (достоверность 3)  [7EF27895], AccurateRip вернул [205E0978]  (AR v2)
Ни один трек не прошёл проверки на точность
В вашей базе может быть иной вариант штамповки диска
Конец отчёта
==== Контрольная сумма отчёта 9B6547C0F1D2F54B678A5467482EB8E8E047DE3728E30F4E93153ECE833BA958 ====
Matrix: 18P2-2689 2
Ripper: wwf
same as (1985-08-00) West Germany, Elektra 9 74014-2
Код:
Exact Audio Copy V1.3 from 2. September 2016
EAC extraction logfile from 27. November 2016, 13:34
The Doors / Strange Days (Japan 18P2-2689)
Used drive  : PLEXTOR DVDR   PX-L890SA   Adapter: 1  ID: 1
Read mode               : Secure
Utilize accurate stream : Yes
Defeat audio cache      : Yes
Make use of C2 pointers : No
Read offset correction                      : 6
Overread into Lead-In and Lead-Out          : No
Fill up missing offset samples with silence : Yes
Delete leading and trailing silent blocks   : No
Null samples used in CRC calculations       : Yes
Used interface                              : Native Win32 interface for Win NT & 2000
Used output format              : User Defined Encoder
Selected bitrate                : 1024 kBit/s
Quality                         : High
Add ID3 tag                     : No
Command line compressor         : C:\Program Files (x86)\Exact Audio Copy\wavpack.exe
Additional command line options : -lm %source%
TOC of the extracted CD
     Track |   Start  |  Length  | Start sector | End sector
    ---------------------------------------------------------
        1  |  0:00.00 |  3:08.35 |         0    |    14134
        2  |  3:08.35 |  3:02.00 |     14135    |    27784
        3  |  6:10.35 |  3:15.70 |     27785    |    42479
        4  |  9:26.30 |  1:58.30 |     42480    |    51359
        5  | 11:24.60 |  1:34.52 |     51360    |    58461
        6  | 12:59.37 |  3:03.18 |     58462    |    72204
        7  | 16:02.55 |  2:11.45 |     72205    |    82074
        8  | 18:14.25 |  2:28.57 |     82075    |    93231
        9  | 20:43.07 |  3:25.55 |     93232    |   108661
       10  | 24:08.62 | 10:55.43 |    108662    |   157829
Range status and errors
Selected range
     Filename D:\wwphil\The Doors - Strange Days (Japan 18P2-2689)\The Doors - Strange Days (Japan 18P2-2689).wav
     Peak level 89.1 %
     Extraction speed 7.5 X
     Range quality 100.0 %
     Test CRC 250F4B73
     Copy CRC 250F4B73
     Copy OK
No errors occurred
AccurateRip summary
Track  1  accurately ripped (confidence 2)  [5B4F3826]  (AR v2)
Track  2  accurately ripped (confidence 2)  [40A3D4AA]  (AR v2)
Track  3  accurately ripped (confidence 2)  [ABC43E8F]  (AR v2)
Track  4  accurately ripped (confidence 2)  [EAD6CF16]  (AR v2)
Track  5  accurately ripped (confidence 2)  [70969B7A]  (AR v2)
Track  6  accurately ripped (confidence 2)  [66C6F426]  (AR v2)
Track  7  accurately ripped (confidence 2)  [59CA23C2]  (AR v2)
Track  8  accurately ripped (confidence 2)  [E841C238]  (AR v2)
Track  9  accurately ripped (confidence 2)  [6B970026]  (AR v2)
Track 10  accurately ripped (confidence 2)  [9EC34F61]  (AR v2)
All tracks accurately ripped
End of status report
==== Log checksum 0888DA27C43668EAC35D595467F8FE1911BD96B7B23572D7684848FE69953F8F ====
Matrix: 755974014-2.2 WME 36
Ripper: unclesandy
Код:
Exact Audio Copy V1.0 beta 3 from 29. August 2011
EAC extraction logfile from 17. October 2012, 9:11
The Doors / Strange Days
Used drive  : TSSTcorpCDDVDW SH-S203B   Adapter: 2  ID: 0
Read mode               : Secure
Utilize accurate stream : Yes
Defeat audio cache      : Yes
Make use of C2 pointers : No
Read offset correction                      : 6
Overread into Lead-In and Lead-Out          : No
Fill up missing offset samples with silence : Yes
Delete leading and trailing silent blocks   : No
Null samples used in CRC calculations       : Yes
Used interface                              : Native Win32 interface for Win NT & 2000
Used output format : Internal WAV Routines
Sample format      : 44.100 Hz; 16 Bit; Stereo
TOC of the extracted CD
     Track |   Start  |  Length  | Start sector | End sector
    ---------------------------------------------------------
        1  |  0:00.00 |  3:10.02 |         0    |    14251
        2  |  3:10.02 |  3:04.30 |     14252    |    28081
        3  |  6:14.32 |  3:17.18 |     28082    |    42874
        4  |  9:31.50 |  2:00.12 |     42875    |    51886
        5  | 11:31.62 |  1:35.15 |     51887    |    59026
        6  | 13:07.02 |  3:02.45 |     59027    |    72721
        7  | 16:09.47 |  2:12.35 |     72722    |    82656
        8  | 18:22.07 |  2:29.23 |     82657    |    93854
        9  | 20:51.30 |  3:26.17 |     93855    |   109321
       10  | 24:17.47 | 10:56.50 |    109322    |   158571
Range status and errors
Selected range
     Filename C:\Incoming\UncleSandy\The Doors - Strange Days.wav
     Peak level 98.1 %
     Extraction speed 2.5 X
     Range quality 99.9 %
     Test CRC 695D6C08
     Copy CRC 695D6C08
     Copy OK
No errors occurred
AccurateRip summary
Track  1  accurately ripped (confidence 28)  [A6D9DBE8]  (AR v2)
Track  2  accurately ripped (confidence 27)  [C9D5FAFB]  (AR v2)
Track  3  accurately ripped (confidence 27)  [09E84BEF]  (AR v2)
Track  4  accurately ripped (confidence 26)  [72FBA190]  (AR v2)
Track  5  accurately ripped (confidence 28)  [7F1D3B3F]  (AR v2)
Track  6  accurately ripped (confidence 28)  [81B7D77B]  (AR v2)
Track  7  accurately ripped (confidence 27)  [F3338326]  (AR v2)
Track  8  accurately ripped (confidence 28)  [EA0FF24E]  (AR v2)
Track  9  accurately ripped (confidence 28)  [9CE32DBE]  (AR v2)
Track 10  accurately ripped (confidence 28)  [15354167]  (AR v2)
All tracks accurately ripped
End of status report
==== Log checksum 05BA920D211A79D61B788DA03058055D30EE0B864BE3DB63E6E29BE1A452A7BE ====
Matrix: 755974014-2.2 WME IFPI 060C 3
Ripper: unclesandy
same as (1991-02-25) Germany, Elektra 7559-74014-2
Код:
Exact Audio Copy V0.99 prebeta 5 from 4. May 2009
EAC extraction logfile from 6. April 2011, 16:19
Doors, The / Strange Days
Used drive  : TSSTcorpCDDVDW SH-S203B   Adapter: 2  ID: 0
Read mode               : Secure
Utilize accurate stream : Yes
Defeat audio cache      : Yes
Make use of C2 pointers : No
Read offset correction                      : 6
Overread into Lead-In and Lead-Out          : No
Fill up missing offset samples with silence : Yes
Delete leading and trailing silent blocks   : No
Null samples used in CRC calculations       : Yes
Used interface                              : Native Win32 interface for Win NT & 2000
Used output format : Internal WAV Routines
Sample format      : 44.100 Hz; 16 Bit; Stereo
TOC of the extracted CD
     Track |   Start  |  Length  | Start sector | End sector
    ---------------------------------------------------------
        1  |  0:00.00 |  3:10.02 |         0    |    14251
        2  |  3:10.02 |  3:04.30 |     14252    |    28081
        3  |  6:14.32 |  3:17.18 |     28082    |    42874
        4  |  9:31.50 |  2:00.12 |     42875    |    51886
        5  | 11:31.62 |  1:35.15 |     51887    |    59026
        6  | 13:07.02 |  3:02.45 |     59027    |    72721
        7  | 16:09.47 |  2:12.35 |     72722    |    82656
        8  | 18:22.07 |  2:29.23 |     82657    |    93854
        9  | 20:51.30 |  3:26.17 |     93855    |   109321
       10  | 24:17.47 | 10:56.50 |    109322    |   158571
Range status and errors
Selected range
     Filename C:\Incoming\The Doors\1967-Strange Days [1985, Elektra 7559-74014-2, Germany]\Doors, The - Strange Days [1985, Elektra 7559-74014-2, Germany].wav
     Peak level 98.1 %
     Range quality 99.9 %
     Test CRC 695D6C08
     Copy CRC 695D6C08
     Copy OK
No errors occurred
AccurateRip summary
Track  1  accurately ripped (confidence 113)  [23C69866]
Track  2  accurately ripped (confidence 110)  [4B23F90F]
Track  3  accurately ripped (confidence 111)  [C6FB3712]
Track  4  accurately ripped (confidence 113)  [90DF631F]
Track  5  accurately ripped (confidence 111)  [8E921714]
Track  6  accurately ripped (confidence 114)  [995BA211]
Track  7  accurately ripped (confidence 112)  [071B2C57]
Track  8  accurately ripped (confidence 112)  [953A6939]
Track  9  accurately ripped (confidence 112)  [284A152A]
Track 10  accurately ripped (confidence 107)  [3AF97DB0]
All tracks accurately ripped
End of status report
Matrix: 2 74014-2 SRC+04 *M5 S5 IFPI 2V2M
Ripper: виктор юрьевич
same as (1991-02-25) Germany, Elektra 7559-74014-2
Код:
Exact Audio Copy V0.99 prebeta 5 from 4. May 2009
Отчёт EAC об извлечении, выполненном 6. апреля 2010, 18:14
The Doors / Strange Days
Дисковод: Optiarc DVD RW AD-7200S   Adapter: 2  ID: 0
Режим чтения                 : Достоверность
Использование точного потока : Да
Отключение кэша аудио        : Да
Использование указателей C2  : Нет
Коррекция смещения при чтении                     : 48
Способность читать области Lead-in и Lead-out     : Нет
Заполнение пропущенных сэмплов тишиной            : Да
Удаление блоков с тишиной в начале и конце        : Нет
При вычислениях CRC использовались нулевые сэмплы : Да
Интерфейс                                         : Установленный внешний ASPI-интерфейс
Выходной формат : Внутренние WAV-операции
Формат сэмплов  : 44.100 Гц; 16 бит; стерео
TOC извлечённого CD
     Трек |   Старт  | Длительность | Начальный сектор | Конечный сектор
    ---------------------------------------------------------------------
       1  |  0:00.33 |    3:09.27   |          33      |      14234
       2  |  3:09.60 |    3:04.28   |       14235      |      28062
       3  |  6:14.13 |    3:17.17   |       28063      |      42854
       4  |  9:31.30 |    2:00.18   |       42855      |      51872
       5  | 11:31.48 |    1:35.15   |       51873      |      59012
       6  | 13:06.63 |    3:02.37   |       59013      |      72699
       7  | 16:09.25 |    2:12.40   |       72700      |      82639
       8  | 18:21.65 |    2:29.20   |       82640      |      93834
       9  | 20:51.10 |    3:26.15   |       93835      |     109299
      10  | 24:17.25 |   10:56.45   |      109300      |     158544
Характеристики диапазона извлечения и сообщения об ошибках
Выбранный диапазон
     Имя файла E:\МОИ РАЗДАЧИ\The Doors - Strange Days 1975\The Doors - Strange Days.wav
     Пиковый уровень 98.1 %
     Качество диапазона 99.9 %
     CRC копии B84D288B
     Копирование... OK
Ошибок не произошло
AccurateRip: сводка
Трек  1  точное извлечение (доверие 44)  [1AC78952]
Трек  2  точное извлечение (доверие 46)  [631666B1]
Трек  3  точное извлечение (доверие 47)  [A0604D8C]
Трек  4  точное извлечение (доверие 46)  [80DAA37B]
Трек  5  точное извлечение (доверие 45)  [7698C353]
Трек  6  точное извлечение (доверие 46)  [1B3F22F4]
Трек  7  точное извлечение (доверие 45)  [AEDFF365]
Трек  8  точное извлечение (доверие 46)  [F4771EF9]
Трек  9  точное извлечение (доверие 46)  [B6C91CFC]
Трек 10  точное извлечение (доверие 44)  [D4106754]
Все треки извлечены точно
Конец отчёта
Matrix: GZS1026-2 . MASTERED BY NIMBUS IFPI L121
Ripper: DaRReL
same as (1995-04-00) Japan/US/Canada, DCC GZS-1026 probably convert from tracks+ .cue -> image+ .cue
Код:
Exact Audio Copy V0.99 prebeta 5 from 4. May 2009
EAC extraction logfile from 16. March 2012, 16:57
The Doors / Strange Days (DCC GZS 1026)
Used drive  : ASUS    DRW-24B3ST   Adapter: 4  ID: 0
Read mode               : Secure
Utilize accurate stream : Yes
Defeat audio cache      : Yes
Make use of C2 pointers : No
Read offset correction                      : 6
Overread into Lead-In and Lead-Out          : No
Fill up missing offset samples with silence : Yes
Delete leading and trailing silent blocks   : No
Null samples used in CRC calculations       : Yes
Used interface                              : Native Win32 interface for Win NT & 2000
Used output format : Internal WAV Routines
Sample format      : 44.100 Hz; 16 Bit; Stereo
TOC of the extracted CD
     Track |   Start  |  Length  | Start sector | End sector
    ---------------------------------------------------------
        1  |  0:00.47 |  3:09.30 |        47    |    14251
        2  |  3:10.02 |  3:04.25 |     14252    |    28076
        3  |  6:14.27 |  3:18.48 |     28077    |    42974
        4  |  9:33.00 |  2:00.25 |     42975    |    51999
        5  | 11:33.25 |  1:35.72 |     52000    |    59196
        6  | 13:09.22 |  3:01.40 |     59197    |    72811
        7  | 16:10.62 |  2:12.40 |     72812    |    82751
        8  | 18:23.27 |  2:29.38 |     82752    |    93964
        9  | 20:52.65 |  3:26.12 |     93965    |   109426
       10  | 24:19.02 | 10:58.30 |    109427    |   158806
Range status and errors
Selected range
     Filename F:\@ 24K+Gold HDCD, DCC\The Doors © 1967- Strange Days (US 1993 DCC Compact Classics • GZS-1026)\The Doors - Strange Days (DCC GZS 1026).wav
     Peak level 100.0 %
     Range quality 100.0 %
     Test CRC C4554613
     Copy CRC C4554613
     Copy OK
No errors occurred
AccurateRip summary
Track  1  accurately ripped (confidence 14)  [3C71C462]
Track  2  accurately ripped (confidence 14)  [C6C192CA]
Track  3  accurately ripped (confidence 14)  [7845E434]
Track  4  accurately ripped (confidence 14)  [77899C2A]
Track  5  accurately ripped (confidence 14)  [12F08252]
Track  6  accurately ripped (confidence 14)  [EDB78ECC]
Track  7  accurately ripped (confidence 14)  [E2C9E5F2]
Track  8  accurately ripped (confidence 14)  [89721F09]
Track  9  accurately ripped (confidence 14)  [35BD6F96]
Track 10  accurately ripped (confidence 14)  [EC9484FB]
All tracks accurately ripped
End of status report
Matrix: GZS1026 4/95 SDA1
Ripper: havefun6699
Код:
Exact Audio Copy V1.0 beta 3 from 29. August 2011
Отчёт EAC об извлечении, выполненном 9. января 2014, 14:20
Doors / Strange Days [DCC Gold CD]
Дисковод: MATSHITADVD-RAM UJ8B1AS   Adapter: 0  ID: 1
Режим чтения                 : Достоверность
Использование точного потока : Да
Отключение кэша аудио        : Да
Использование указателей C2  : Нет
Коррекция смещения при чтении                     : 6
Способность читать области Lead-in и Lead-out     : Нет
Заполнение пропущенных сэмплов тишиной            : Да
Удаление блоков с тишиной в начале и конце        : Нет
При вычислениях CRC использовались нулевые сэмплы : Да
Интерфейс                                         : Встроенный Win32-интерфейс для Win NT/2000
Выходной формат          : Пользовательский кодировщик
Выбранный битрейт        : 768 kBit/s
Качество                 : Высокий
Добавление ID3-тега      : Нет
Утилита сжатия           : C:\Program Files (x86)\Exact Audio Copy\FLAC\FLAC.EXE
Дополнительные параметры : -6 -V -T "ARTIST=%artist%" -T "TITLE=%title%" -T "ALBUM=%albumtitle%" -T "DATE=%year%" -T "TRACKNUMBER=%tracknr%" -T "GENRE=%genre%" -T "COMMENT=%comment%" -T "BAND=%albuminterpret%" -T "COMPOSER=%composer%" %haslyrics%--tag-from-file=LYRICS="%lyricsfile%"%haslyrics% -T "DISCNUMBER=%cdnumber%" -T "TOTALDISCS=%totalcds%" -T "TOTALTRACKS=%numtracks%" %hascover%--picture="%coverfile%"%hascover% %source% -o %dest%
TOC извлечённого CD
     Трек |   Старт  | Длительность | Начальный сектор | Конечный сектор
    ---------------------------------------------------------------------
       1  |  0:00.00 |    3:09.30   |           0      |      14204
       2  |  3:09.30 |    3:04.25   |       14205      |      28029
       3  |  6:13.55 |    3:18.48   |       28030      |      42927
       4  |  9:32.28 |    2:00.25   |       42928      |      51952
       5  | 11:32.53 |    1:35.72   |       51953      |      59149
       6  | 13:08.50 |    3:01.40   |       59150      |      72764
       7  | 16:10.15 |    2:12.40   |       72765      |      82704
       8  | 18:22.55 |    2:29.38   |       82705      |      93917
       9  | 20:52.18 |    3:26.20   |       93918      |     109387
      10  | 24:18.38 |   10:58.22   |      109388      |     158759
Характеристики диапазона извлечения и сообщения об ошибках
Выбранный диапазон
     Имя файла D:\Gh@nz3\Doors 1968 Strange Days DCC US GZS 1026 GOLD CD, slipcase Denon matrix\Doors - Strange Days [DCC Gold CD].wav
     Пиковый уровень 100.0 %
     Скорость извлечения 4.2 X
     Качество диапазона 100.0 %
     CRC теста 66756A09
     CRC копии 66756A09
     Копирование... OK
Ошибок не произошло
AccurateRip: сводка
Трек  1  : извлечено точно (доверие 2)  [E7A1BBC8]  (AR v2)
Трек  2  : извлечено точно (доверие 2)  [8687F149]  (AR v2)
Трек  3  : извлечено точно (доверие 2)  [3B5671CD]  (AR v2)
Трек  4  : извлечено точно (доверие 2)  [89E6DC1E]  (AR v2)
Трек  5  : извлечено точно (доверие 2)  [2DA584F9]  (AR v2)
Трек  6  : извлечено точно (доверие 2)  [6AA50E36]  (AR v2)
Трек  7  : извлечено точно (доверие 2)  [2F14489F]  (AR v2)
Трек  8  : извлечено точно (доверие 2)  [77A2FF4A]  (AR v2)
Трек  9  : извлечено точно (доверие 2)  [F1A6D777]  (AR v2)
Трек 10  : извлечено точно (доверие 2)  [41A5D0A4]  (AR v2)
Все треки извлечены точно
Конец отчёта
==== Контрольная сумма отчёта 6FE201A076E02D751CBB0F4713D1FF8A234EF11F169DB6426FC6D9B38A5008DC ====
Код:
Exact Audio Copy V0.99 prebeta 4 from 23. January 2008
EAC extraction logfile from 21. May 2008, 20:43
The Doors / Strange Days (2003)
Used drive  : HL-DT-STDVDRAM GSA-4040B   Adapter: 1  ID: 0
Read mode               : Secure
Utilize accurate stream : Yes
Defeat audio cache      : Yes
Make use of C2 pointers : No
Read offset correction                      : 667
Overread into Lead-In and Lead-Out          : No
Fill up missing offset samples with silence : Yes
Delete leading and trailing silent blocks   : No
Null samples used in CRC calculations       : Yes
Used interface                              : Installed external ASPI interface
Used output format : Internal WAV Routines
Sample format      : 44.100 Hz; 16 Bit; Stereo
TOC of the extracted CD
     Track |   Start  |  Length  | Start sector | End sector
    ---------------------------------------------------------
        1  |  0:00.00 |  3:09.32 |         0    |    14206
        2  |  3:09.32 |  3:03.15 |     14207    |    27946
        3  |  6:12.47 |  3:16.65 |     27947    |    42711
        4  |  9:29.37 |  2:00.18 |     42712    |    51729
        5  | 11:29.55 |  1:35.19 |     51730    |    58873
        6  | 13:04.74 |  3:04.03 |     58874    |    72676
        7  | 16:09.02 |  2:12.23 |     72677    |    82599
        8  | 18:21.25 |  2:29.45 |     82600    |    93819
        9  | 20:50.70 |  3:26.72 |     93820    |   109341
       10  | 24:17.67 | 10:59.20 |    109342    |   158786
Range status and errors
Selected range
     Filename E:\Music\The Doors - Strange Days (2003).wav
     Peak level 98.9 %
     Range quality 100.0 %
     Copy CRC 0C4238CA
     Copy OK
No errors occurred
End of status report
Matrix: IFPI L276 WPCR-75074 1
Ripper: dafnaplus
Код:
Exact Audio Copy V1.0 beta 3 from 29. August 2011
EAC extraction logfile from 30. May 2014, 5:58
The Doors / Strange Days (WPCR-75074)
Used drive  : PLEXTOR DVDR   PX-891SA   Adapter: 3  ID: 0
Read mode               : Secure
Utilize accurate stream : Yes
Defeat audio cache      : Yes
Make use of C2 pointers : No
Read offset correction                      : 6
Overread into Lead-In and Lead-Out          : No
Fill up missing offset samples with silence : Yes
Delete leading and trailing silent blocks   : No
Null samples used in CRC calculations       : Yes
Used interface                              : Native Win32 interface for Win NT & 2000
Used output format              : User Defined Encoder
Selected bitrate                : 1024 kBit/s
Quality                         : High
Add ID3 tag                     : No
Command line compressor         : C:\Program Files\Exact Audio Copy\Flac\flac.exe
Additional command line options : -V -8 -T "Genre=%genre%" -T "Artist=%artist%" -T "Title=%title%" -T "Album=%albumtitle%" -T "Date=%year%" -T "Tracknumber=%tracknr%" -T "Comment=%comment%" %source%
TOC of the extracted CD
     Track |   Start  |  Length  | Start sector | End sector
    ---------------------------------------------------------
        1  |  0:00.00 |  3:09.45 |         0    |    14219
        2  |  3:09.45 |  3:03.15 |     14220    |    27959
        3  |  6:12.60 |  3:16.65 |     27960    |    42724
        4  |  9:29.50 |  2:00.17 |     42725    |    51741
        5  | 11:29.67 |  1:35.25 |     51742    |    58891
        6  | 13:05.17 |  3:03.73 |     58892    |    72689
        7  | 16:09.15 |  2:12.22 |     72690    |    82611
        8  | 18:21.37 |  2:29.45 |     82612    |    93831
        9  | 20:51.07 |  3:26.73 |     93832    |   109354
       10  | 24:18.05 | 10:59.32 |    109355    |   158811
Range status and errors
Selected range
     Filename H:\dafnaplus\Doors\1967 Strange Days\The Doors - Strange Days (WPCR-75074).wav
     Peak level 98.9 %
     Extraction speed 7.7 X
     Range quality 99.9 %
     Test CRC 1016B88C
     Copy CRC 1016B88C
     Copy OK
No errors occurred
AccurateRip summary
Track  1  accurately ripped (confidence 4)  [2A977692]  (AR v2)
Track  2  accurately ripped (confidence 4)  [759971D3]  (AR v2)
Track  3  accurately ripped (confidence 4)  [1FC3072D]  (AR v2)
Track  4  accurately ripped (confidence 4)  [F8B68ABE]  (AR v2)
Track  5  accurately ripped (confidence 4)  [B44F1B08]  (AR v2)
Track  6  accurately ripped (confidence 4)  [4FE8F95D]  (AR v2)
Track  7  accurately ripped (confidence 4)  [8B0E5456]  (AR v2)
Track  8  accurately ripped (confidence 4)  [CCA02AB4]  (AR v2)
Track  9  accurately ripped (confidence 4)  [7FDCE3F0]  (AR v2)
Track 10  accurately ripped (confidence 4)  [A5B1B699]  (AR v2)
All tracks accurately ripped
End of status report
==== Log checksum 9A11C2FAF74062D7A852976D945979984BF0E663175A6E7CBD749AD191E39E70 ====
Список обновления в этом посте.
Правила, инструкции, FAQ!!!
Торрент  Добавлен [05 авг 2018, 09:25] Скачать торрент Магнет ссылка
Скачать торрент
[ Размер 546.67 КБ / Просмотров 41 ]

Статус
Проверен 
 
Размер  45.92 ГБ
Приватный: Нет (DHT включён)
.torrent скачан  0
Как залить торрент? | Как скачать Torrent? | Ошибка в торренте? Качайте магнет  


     Отправить личное сообщение
   
Страница 1 из 1
Показать сообщения за:  Поле сортировки  
Начать новую тему Ответить на тему

   Похожие торренты   Автор   Ответы   Просмотры   Последнее сообщение 
В этой теме нет новых непрочитанных сообщений. Скачать торрент Проверен (Rock) The Doors - Discography (1966-2014) 205 CDs (27.10.14 updated), FLAC/APE/WV (image+.cue)/(tracks+.cue), lossless

в форуме Classic Rock & Hard Rock, Размер: 45.97 ГБ, Здоровье: 100%

Anonymous

0
71|39

129
3

05 сен 2016, 23:06

Anonymous Перейти к последнему сообщению

В этой теме нет новых непрочитанных сообщений. Скачать торрент Проверен (Rock) The Doors - Бутлеги (Bootlegs) (1966-2004) - 179 бутлегов, FLAC, SHN (tracks), lossless

в форуме Classic Rock & Hard Rock, Размер: 57.11 ГБ, Здоровье: 100%

Anonymous

0
11|6

33
0

04 сен 2016, 22:49

Anonymous Перейти к последнему сообщению

В этой теме нет новых непрочитанных сообщений. Скачать торрент Проверен (Rock) [LP] [24/96] The Doors - 2 альбома [The Doors & Strange Days] - 1967, FLAC (tracks), lossless

в форуме Зарубежный рок (оцифровки), Размер: 1.57 ГБ, Здоровье: 87%

Anonymous

0
7|8

170
1

27 авг 2016, 10:23

Anonymous Перейти к последнему сообщению

В этой теме нет новых непрочитанных сообщений. Скачать торрент Проверен (Alternative Rock / Post-Grunge) [CD] 3 Doors Down - 3 Doors Down - 2008, FLAC (tracks+.cue), lossless

в форуме Alternative & Nu-metal, Размер: 315.52 МБ, Здоровье: 100%

Anonymous

0
7|1

39
0

24 фев 2017, 21:49

Anonymous Перейти к последнему сообщению

В этой теме нет новых непрочитанных сообщений. Скачать торрент Проверен (Psychedelic Rock) [CD] The Doors - The Best Of The Doors (1973) - 2015 {AFZ5 206}, FLAC (image+.cue), lossless

в форуме Classic Rock & Hard Rock, Размер: 374.02 МБ, Здоровье: 100%

Anonymous

0
66|17

125
43

05 сен 2016, 21:04

Anonymous Перейти к последнему сообщению



Сейчас этот форум просматривают: нет зарегистрированных пользователей и гости: 0


Вы не можете начинать темы
Вы не можете отвечать на сообщения
Вы не можете редактировать свои сообщения
Вы не можете удалять свои сообщения
Вы не можете добавлять вложения

Перейти:  
Ресурс не предоставляет электронные версии произведений, а занимается лишь коллекционированием и каталогизацией ссылок, присылаемых и публикуемых на форуме нашими читателями. Если вы являетесь правообладателем какого-либо представленного материала и не желаете чтобы ссылка на него находилась в нашем каталоге, свяжитесь с нами и мы незамедлительно удалим её. Файлы для обмена на трекере предоставлены пользователями сайта, и администрация не несёт ответственности за их содержание. Просьба не заливать файлы, защищенные авторскими правами, а также файлы нелегального содержания!
cron