На всех торрентах на трекере установлена скидка на скачивание в размере 100 процентов(а).
 Возможность скачивания торрента НЕ зависит от ограничений при низком ратио, низком аплоаде, требуемом ратио или требуемом аплоаде.


Начать новую тему Ответить на тему
Статистика раздачи
Размер: 5.66 ГБ | Добавлен: 01 дек 2015, 00:20 | Скачали: 15
Сидеров: 205  [0 байт/сек]    Личеров: 162  [0 байт/сек]
Пред. тема | След. тема 

Автор
Сообщение

СообщениеДобавлено: 01 дек 2015, 00:20 

Ответить с цитатой 

Русский язык вместе с Хрюшей и Степашкой (1-6 части, 45 серий) (2007-2008) DVDRip

Год выпуска: 2007-2008
Жанр: Детский, Кукольный

Язык: Русский

Описание:
Перед вами уникальная детская обучающая программа, созданная с участием специалистов по развитию ребенка, педагогов и детских психологов. Всем известные герои популярной передачи "Спокойной ночи, малыши!" превратят знакомство с русским языком в веселую и увлекательную игру.

Режиссер: Нина Подколзина, Людмила Зайцева, Александр Митрошенко
Персонажи: Хрюша, Степашка и друзья

Продолжительность: ~06:40:00
Качество видео: DVDRip

Видеокодек: DivX 3
Битрейт видео:~1526 Кбит/с
Размер кадра: 640x480
Качество видео: DVDRip
Аудиокодек: MP3, 2 канала
Битрейт аудио: 160 Кбит/с
Видео
Идентификатор : 0
Формат : MPEG-4 Visual
Параметр BVOP формата : 3
Параметр QPel формата : Нет
Параметр GMC формата : Без точки перехода
Параметр матрицы формата : Default (H.263)
Режим смешивания : Сжатый битовый поток
Идентификатор кодека : DX50
Идентификатор кодека/Подсказка : DivX 5
Продолжительность : 10 м.
Битрейт : 1396 Кбит/сек
Ширина : 640 пикселей
Высота : 480 пикселей
Соотношение сторон : 4:3
Частота кадров : 25,000 кадров/сек
Цветовое пространство : YUV
Субдискретизация насыщенности : 4:2:0
Битовая глубина : 8 бит
Тип развёртки : Прогрессивная
Метод сжатия : С потерями
Бит/(Пиксели*Кадры) : 0.182
Размер потока : 100 Мбайт (89%)
Библиотека кодирования : DivX 6.8.0 (UTC 2007-12-04)

Аудио
Идентификатор : 1
Формат : MPEG Audio
Версия формата : Version 1
Профиль формата : Layer 3
Режим : Joint stereo
Расширение режима : MS Stereo
Идентификатор кодека : 55
Идентификатор кодека/Подсказка : MP3
Продолжительность : 10 м.
Вид битрейта : Постоянный
Битрейт : 160 Кбит/сек
Каналы : 2 канала
Частота : 48,0 КГц
Метод сжатия : С потерями
Размер потока : 11,5 Мбайт (10%)
Выравнивание : Соединение по промежуткам
Продолжительность промежутка : 40 мс. (1,00 видеокадр)
Время предзагрузки промежутка : 504 мс.
Библиотека кодирования : LAME3.97U
Скриншоты:





Торрент перезалит 22 Дек 2010 20:32:54


Время раздачи: "c 11:00 до 1:00"
Правила, инструкции, FAQ!!!
Торрент  Добавлен [01 дек 2015, 00:20] Скачать торрент Магнет ссылка
Скачать торрент
[ Размер 30.75 КБ / Просмотров 224 ]

Статус
Проверен 
 
Размер  5.66 ГБ
Приватный: Нет (DHT включён)
.torrent скачан  15
Как залить торрент? | Как скачать Torrent? | Ошибка в торренте? Качайте магнет  


     Отправить личное сообщение
   
Страница 1 из 1
Показать сообщения за:  Поле сортировки  
Начать новую тему Ответить на тему

   Похожие торренты   Автор   Ответы   Просмотры   Последнее сообщение 
В этой теме нет новых непрочитанных сообщений. Скачать торрент Проверен Русский язык вместе с Хрюшей и Степашкой (Нина Подколзина, Людмила Зайцева, Александр Митрошенко)(все 1-6 части) [2007-2008 г., Детский, обучающий, DVDRip]

в форуме Обучающие издания для детей, Размер: 5.66 ГБ, Здоровье: 100%

Anonymous

0
48|20

262
5

20 сен 2014, 00:08

Anonymous Перейти к последнему сообщению

В этой теме нет новых непрочитанных сообщений. Скачать торрент Проверен Спокойной ночи малыши. Русский язык вместе с Хрюшей и ... - Часть 4 / Спокойной ночи малыши. Русский язык вместе с Хрюшей и ... - Часть 4 (2008) DVD5

в форуме Развивающее Видео для детей, Размер: 3.32 ГБ, Здоровье: 100%

Anonymous

0
2|2

115
0

30 ноя 2015, 23:15

Anonymous Перейти к последнему сообщению

В этой теме нет новых непрочитанных сообщений. Скачать торрент Проверен Спокойной ночи малыши. Русский язык вместе с Хрюшей и ... - Часть 3 / Спокойной ночи малыши. Русский язык вместе с Хрюшей и ... - Часть 3 (2008) DVD5

в форуме Развивающее Видео для детей, Размер: 3.68 ГБ, Здоровье: 100%

Anonymous

0
2|1

156
0

30 ноя 2015, 22:52

Anonymous Перейти к последнему сообщению

В этой теме нет новых непрочитанных сообщений. Скачать торрент Проверен Спокойной ночи малыши. Русский язык вместе с Хрюшей и ... - Часть 1 / Спокойной ночи малыши. Русский язык вместе с Хрюшей и ... - Часть 1 (2008) DVD5

в форуме Развивающее Видео для детей, Размер: 3.4 ГБ, Здоровье: 20%

Anonymous

0
1|5

243
0

30 ноя 2015, 22:56

Anonymous Перейти к последнему сообщению

В этой теме нет новых непрочитанных сообщений. Скачать торрент Проверен Английский вместе с Хрюшей и Степашкой (5 дисков из 5) (2003-2007) DVD9

в форуме Развивающее Видео для детей, Размер: 31.06 ГБ, Здоровье: 100%

Anonymous

0
15|7

251
3

30 ноя 2015, 23:41

Anonymous Перейти к последнему сообщению



Сейчас этот форум просматривают: нет зарегистрированных пользователей и гости: 0


Вы не можете начинать темы
Вы не можете отвечать на сообщения
Вы не можете редактировать свои сообщения
Вы не можете удалять свои сообщения
Вы не можете добавлять вложения

Перейти:  
Ресурс не предоставляет электронные версии произведений, а занимается лишь коллекционированием и каталогизацией ссылок, присылаемых и публикуемых на форуме нашими читателями. Если вы являетесь правообладателем какого-либо представленного материала и не желаете чтобы ссылка на него находилась в нашем каталоге, свяжитесь с нами и мы незамедлительно удалим её. Файлы для обмена на трекере предоставлены пользователями сайта, и администрация не несёт ответственности за их содержание. Просьба не заливать файлы, защищенные авторскими правами, а также файлы нелегального содержания!
cron