На всех торрентах на трекере установлена скидка на скачивание в размере 100 процентов(а).
 Возможность скачивания торрента НЕ зависит от ограничений при низком ратио, низком аплоаде, требуемом ратио или требуемом аплоаде.


Начать новую тему Ответить на тему
Статистика раздачи
Размер: 9.64 ГБ | Добавлен: 08 апр 2018, 19:15 | Скачали: 0
Сидеров: 79  [0 байт/сек]    Личеров: 26  [0 байт/сек]
Пред. тема | След. тема 

Автор
Сообщение

СообщениеДобавлено: 08 апр 2018, 19:15 

Ответить с цитатой 

Название: Сабрина
Оригинальное название: Sabrina
Год выхода: 1995
Жанр: драма, комедия
Режиссер: Сидни Поллак
В ролях: Харрисон Форд, Джулия Ормонд, Грег Киннир, Нэнси Марчанд, Джон Вуд, Фанни Ардан, Ричард Кренна, Энджи Дикинсон, Лорен Холли, Дэна Айви

О фильме: В семье Лэраби предстоит важное событие — свадьба младшего брата. Приданное невесты позволит братьям стать монополистами на рынке коммуникаций. Но все эти планы рушатся, когда из Парижа возвращается красавица Сабрина — дочь шофера семьи, ставшая супермоделью.



Страна: Германия, США
Студия: Constellation Entertainment, Mirage Enterprises, Mont Blanc Entertainment GmbH, Paramount Pictures
Продолжительность: 02:07:18
Перевод: Профессиональный (многоголосый, закадровый) ТВ Центр + Профессиональный (многоголосый, закадровый) НТВ + Профессиональный (многоголосый, закадровый) РТР + Профессиональный (двухголосый, закадровый) ОРТ + Профессиональный (двухголосый, закадровый) Гемини + Авторский (одноголосый, закадровый) С.Визгунов + Авторский (одноголосый, закадровый) В.Горчаков

Файл
Качество: BDRip 720p
Формат: Matroska
Видео: 1280x720 at 23.976 fps, x264@L4.1, ~8600 kbps
Аудио#1: Russian: 48 kHz, AC3 Dolby Digital, 2/0 (L,R) ch, ~192 kbps | Многоголосый закадровый, ТВ Центр
Аудио#2: Russian: 48 kHz, AC3 Dolby Digital, 2/0 (L,R) ch, ~192 kbps | Многоголосый закадровый, НТВ
Аудио#3: Russian: 48 kHz, AC3 Dolby Digital, 2/0 (L,R) ch, ~192 kbps | Многоголосый закадровый, РТР
Аудио#4: Russian: 48 kHz, AC3 Dolby Digital, 2/0 (L,R) ch, ~192 kbps | Двухголосый закадровый, ОРТ
Аудио#5: Russian: 48 kHz, AC3 Dolby Digital, 3/2 (L,C,R,l,r) + LFE ch, ~384 kbps | Двухголосый закадровый, Гемини
Аудио#6: Russian: 48 kHz, AC3 Dolby Digital, 3/2 (L,C,R,l,r) + LFE ch, ~448 kbps | Авторский, С.Визгунов
Аудио#7: Russian: 48 kHz, AC3 Dolby Digital, 2/0 (L,R) ch, ~192 kbps | Авторский, В.Горчаков
Аудио#8: English: 48 kHz, AC3 Dolby Digital, 3/2 (L,C,R,l,r) + LFE ch, ~448 kbps
Cубтитры: Russian, English (Full, SDH)

***Сохранены оригинальные главы как на Blu-ray.
***За аудиодорожки спасибо форуму HD AVO и всем причастным к их появлению.
***Видеоряд - IDE, сборка - igrok2012.

[*]Роль Дэвида была предложена Тому Крузу, а роль Сабрины — Вайноне Райдер. Но в итоге этих персонажей сыграли соответственно Грег Киннер и Джулия Ормонд.
Общее
Уникальный идентификатор : 203014342425705035294449672902841209179 (0x98BB23DF0548CE2D9E4956321CB0115B)
Полное имя : Sabrina 1995 720p BluRay 7xRus Eng x264.mkv
Формат : Matroska
Версия формата : Version 2
Размер файла : 9,64 Гбайт
Продолжительность : 2 ч. 7 м.
Общий поток : 10,8 Мбит/сек
Название фильма : Sabrina (1995) | igrok2012
Дата кодирования : UTC 2017-05-14 18:41:42
Программа кодирования : mkvmerge v11.0.0 ('Alive') 64bit
Библиотека кодирования : libebml v1.3.4 + libmatroska v1.4.5
Attachment : Yes

Видео
Идентификатор : 1
Формат : AVC
Формат/Информация : Advanced Video Codec
Профиль формата : High@L4.1
Параметр CABAC формата : Да
Параметр ReFrames формата : 9 кадров
Идентификатор кодека : V_MPEG4/ISO/AVC
Продолжительность : 2 ч. 7 м.
Битрейт : 8600 Кбит/сек
Ширина : 1280 пикселей
Высота : 720 пикселей
Соотношение сторон : 16:9
Режим частоты кадров : Постоянный
Частота кадров : 23,976 кадра/сек
Цветовое пространство : YUV
Субдискретизация насыщенности : 4:2:0
Битовая глубина : 8 бит
Тип развёртки : Прогрессивная
Бит/(Пиксели*Кадры) : 0.389
Размер потока : 7,46 Гбайт (77%)
Заголовок : Encode by IDE
Библиотека кодирования : x264 core 148 r2705 3f5ed56
Настройки программы : cabac=1 / ref=9 / deblock=1:-3:-3 / analyse=0x3:0x133 / me=tesa / subme=11 / psy=1 / psy_rd=1.05:0.00 / mixed_ref=1 / me_range=24 / chroma_me=1 / trellis=2 / 8x8dct=1 / cqm=0 / deadzone=21,11 / fast_pskip=0 / chroma_qp_offset=-2 / threads=12 / lookahead_threads=3 / sliced_threads=0 / slices=4 / nr=0 / decimate=0 / interlaced=0 / bluray_compat=0 / constrained_intra=0 / bframes=10 / b_pyramid=2 / b_adapt=2 / b_bias=0 / direct=3 / weightb=1 / open_gop=0 / weightp=2 / keyint=250 / keyint_min=23 / scenecut=40 / intra_refresh=0 / rc_lookahead=40 / rc=2pass / mbtree=0 / bitrate=8600 / ratetol=1.0 / qcomp=0.60 / qpmin=0 / qpmax=51 / qpstep=4 / cplxblur=20.0 / qblur=0.5 / vbv_maxrate=50000 / vbv_bufsize=62500 / nal_hrd=none / filler=0 / ip_ratio=1.35 / pb_ratio=1.30 / aq=3:0.60 / zones=1,956,b=1.4
Язык : English
Default : Да
Forced : Нет
Коэффициенты матрицы : BT.709

Аудио #1
Идентификатор : 2
Формат : AC-3
Формат/Информация : Audio Coding 3
Расширение режима : CM (complete main)
Параметр Endianness формата : Big
Идентификатор кодека : A_AC3
Продолжительность : 2 ч. 7 м.
Вид битрейта : Постоянный
Битрейт : 192 Кбит/сек
Каналы : 2 канала
Расположение каналов : Front: L R
Частота : 48,0 КГц
Битовая глубина : 16 бит
Метод сжатия : С потерями
Размер потока : 175 Мбайт (2%)
Заголовок : MVO, ТВ Центр
Язык : Russian
Default : Да
Forced : Нет

Аудио #2
Идентификатор : 3
Формат : AC-3
Формат/Информация : Audio Coding 3
Расширение режима : CM (complete main)
Параметр Endianness формата : Big
Идентификатор кодека : A_AC3
Продолжительность : 2 ч. 7 м.
Вид битрейта : Постоянный
Битрейт : 192 Кбит/сек
Каналы : 2 канала
Расположение каналов : Front: L R
Частота : 48,0 КГц
Битовая глубина : 16 бит
Метод сжатия : С потерями
Размер потока : 175 Мбайт (2%)
Заголовок : MVO
Язык : Russian
Default : Нет
Forced : Нет

Аудио #3
Идентификатор : 4
Формат : AC-3
Формат/Информация : Audio Coding 3
Расширение режима : CM (complete main)
Параметр Endianness формата : Big
Идентификатор кодека : A_AC3
Продолжительность : 2 ч. 7 м.
Вид битрейта : Постоянный
Битрейт : 192 Кбит/сек
Каналы : 2 канала
Расположение каналов : Front: L R
Частота : 48,0 КГц
Битовая глубина : 16 бит
Метод сжатия : С потерями
Размер потока : 175 Мбайт (2%)
Заголовок : MVO, РТР
Язык : Russian
Default : Нет
Forced : Нет

Аудио #4
Идентификатор : 5
Формат : AC-3
Формат/Информация : Audio Coding 3
Расширение режима : CM (complete main)
Параметр Endianness формата : Big
Идентификатор кодека : A_AC3
Продолжительность : 2 ч. 7 м.
Вид битрейта : Постоянный
Битрейт : 192 Кбит/сек
Каналы : 2 канала
Расположение каналов : Front: L R
Частота : 48,0 КГц
Битовая глубина : 16 бит
Метод сжатия : С потерями
Размер потока : 175 Мбайт (2%)
Заголовок : DVO
Язык : Russian
Default : Нет
Forced : Нет

Аудио #5
Идентификатор : 6
Формат : AC-3
Формат/Информация : Audio Coding 3
Расширение режима : CM (complete main)
Параметр Endianness формата : Big
Идентификатор кодека : A_AC3
Продолжительность : 2 ч. 7 м.
Вид битрейта : Постоянный
Битрейт : 384 Кбит/сек
Каналы : 6 каналов
Расположение каналов : Front: L C R, Side: L R, LFE
Частота : 48,0 КГц
Битовая глубина : 16 бит
Метод сжатия : С потерями
Размер потока : 350 Мбайт (4%)
Заголовок : DVO, Гемини
Язык : Russian
Default : Нет
Forced : Нет

Аудио #6
Идентификатор : 7
Формат : AC-3
Формат/Информация : Audio Coding 3
Расширение режима : CM (complete main)
Параметр Endianness формата : Big
Идентификатор кодека : A_AC3
Продолжительность : 2 ч. 7 м.
Вид битрейта : Постоянный
Битрейт : 448 Кбит/сек
Каналы : 6 каналов
Расположение каналов : Front: L C R, Side: L R, LFE
Частота : 48,0 КГц
Битовая глубина : 16 бит
Метод сжатия : С потерями
Размер потока : 408 Мбайт (4%)
Заголовок : AVO, С. Визгунов
Язык : Russian
Default : Нет
Forced : Нет

Аудио #7
Идентификатор : 8
Формат : AC-3
Формат/Информация : Audio Coding 3
Расширение режима : CM (complete main)
Параметр Endianness формата : Big
Идентификатор кодека : A_AC3
Продолжительность : 2 ч. 7 м.
Вид битрейта : Постоянный
Битрейт : 192 Кбит/сек
Каналы : 2 канала
Расположение каналов : Front: L R
Частота : 48,0 КГц
Битовая глубина : 16 бит
Метод сжатия : С потерями
Размер потока : 175 Мбайт (2%)
Заголовок : AVO, В. Горчаков
Язык : Russian
Default : Нет
Forced : Нет

Аудио #8
Идентификатор : 9
Формат : AC-3
Формат/Информация : Audio Coding 3
Расширение режима : CM (complete main)
Параметр Endianness формата : Big
Идентификатор кодека : A_AC3
Продолжительность : 2 ч. 7 м.
Вид битрейта : Постоянный
Битрейт : 448 Кбит/сек
Каналы : 6 каналов
Расположение каналов : Front: L C R, Side: L R, LFE
Частота : 48,0 КГц
Битовая глубина : 16 бит
Метод сжатия : С потерями
Размер потока : 408 Мбайт (4%)
Язык : English
Default : Нет
Forced : Нет

Текст #1
Идентификатор : 10
Формат : UTF-8
Идентификатор кодека : S_TEXT/UTF8
Идентификатор кодека/Информация : UTF-8 Plain Text
Язык : Russian
Default : Нет
Forced : Нет

Текст #2
Идентификатор : 11
Формат : UTF-8
Идентификатор кодека : S_TEXT/UTF8
Идентификатор кодека/Информация : UTF-8 Plain Text
Язык : English
Default : Нет
Forced : Нет

Текст #3
Идентификатор : 12
Формат : UTF-8
Идентификатор кодека : S_TEXT/UTF8
Идентификатор кодека/Информация : UTF-8 Plain Text
Заголовок : SDH
Язык : English
Default : Нет
Forced : Нет

Меню
00:00:00.000 : en:Chapter 1
00:11:26.269 : en:Chapter 2
00:21:52.186 : en:Chapter 3
00:36:16.257 : en:Chapter 4
00:50:35.950 : en:Chapter 5
00:58:29.631 : en:Chapter 6
01:08:38.990 : en:Chapter 7
01:20:12.266 : en:Chapter 8
01:31:08.088 : en:Chapter 9
01:39:44.937 : en:Chapter 10
01:48:29.920 : en:Chapter 11
01:58:07.831 : en:Chapter 12
Правила, инструкции, FAQ!!!
Торрент  Добавлен [08 апр 2018, 19:15] Скачать торрент Магнет ссылка
Скачать торрент
[ Размер 49.15 КБ / Просмотров 166 ]

Статус
Проверен 
 
Размер  9.64 ГБ
Приватный: Нет (DHT включён)
.torrent скачан  0
Как залить торрент? | Как скачать Torrent? | Ошибка в торренте? Качайте магнет  


     Отправить личное сообщение
   
Страница 1 из 1
Показать сообщения за:  Поле сортировки  
Начать новую тему Ответить на тему

   Похожие торренты   Автор   Ответы   Просмотры   Последнее сообщение 
В этой теме нет новых непрочитанных сообщений. Скачать торрент Проверен Сабрина Джеффрис / Sabrina Jeffries - Собрание сочинений [1992-2012; fb2, rtf, ePub; RUS]

в форуме Женский роман, Размер: 160.46 МБ, Здоровье: 28%

Anonymous

0
10|35

273
3

28 авг 2016, 20:53

Anonymous Перейти к последнему сообщению

В этой теме нет новых непрочитанных сообщений. Скачать торрент Проверен Подшивка журналов | 'Сабрина','Сабрина Baby','Сабрина - вязание для детей' [1993-2013] [DjVu] Обновлено 21.07.2013 г.

в форуме Вязание, вышивка, кройка, шитьё, Размер: 3.55 ГБ, Здоровье: 100%

Anonymous

0
939|356

744
14

13 фев 2015, 00:06

Anonymous Перейти к последнему сообщению

В этой теме нет новых непрочитанных сообщений. Скачать торрент Проверен (Italo-Disco) Sabrina (Salerno) - All Of Me / Sabrina Best Hits (Japan) - 1995, FLAC (image+.cue), lossless

в форуме Зарубежная музыка, Размер: 208.14 МБ, Здоровье: 100%

Anonymous

0
2|0

59
0

07 окт 2017, 15:46

Anonymous Перейти к последнему сообщению

В этой теме нет новых непрочитанных сообщений. Скачать торрент Проверен [iPhone] Коллекция Одри Хепберн. Завтрак у Тиффани. Римские каникулы. Забавная мордашка. Сабрина. Любовь после полудня. Шарада. Как украсть миллион./Breakfast at Tiffany's.Roman Holiday.Funny Face.Sabrina.Love in the afternoon.Charade.How to Ste

в форуме Фильмы для iPod, iPhone, iPad, Размер: 4.84 ГБ, Здоровье: 100%

Anonymous

0
16|4

18
2

24 дек 2017, 22:18

Anonymous Перейти к последнему сообщению

В этой теме нет новых непрочитанных сообщений. Скачать торрент Проверен Роб Рой / Rob Roy (1995) BDRip 720p | P, A

в форуме 720p | 1080p, Размер: 4.37 ГБ, Здоровье: 100%

Гость

0
14|12

129
23

26 июл 2015, 20:49

Гость Перейти к последнему сообщению



Сейчас этот форум просматривают: нет зарегистрированных пользователей и гости: 2


Вы не можете начинать темы
Вы не можете отвечать на сообщения
Вы не можете редактировать свои сообщения
Вы не можете удалять свои сообщения
Вы не можете добавлять вложения

Перейти:  
Ресурс не предоставляет электронные версии произведений, а занимается лишь коллекционированием и каталогизацией ссылок, присылаемых и публикуемых на форуме нашими читателями. Если вы являетесь правообладателем какого-либо представленного материала и не желаете чтобы ссылка на него находилась в нашем каталоге, свяжитесь с нами и мы незамедлительно удалим её. Файлы для обмена на трекере предоставлены пользователями сайта, и администрация не несёт ответственности за их содержание. Просьба не заливать файлы, защищенные авторскими правами, а также файлы нелегального содержания!