На всех торрентах на трекере установлена скидка на скачивание в размере 100 процентов(а).
 Возможность скачивания торрента НЕ зависит от ограничений при низком ратио, низком аплоаде, требуемом ратио или требуемом аплоаде.


Начать новую тему Ответить на тему
Статистика раздачи
Размер: 38.94 ГБ | Добавлен: 18 янв 2014, 16:57 | Скачали: 1
Сидеров: 35  [0 байт/сек]    Личеров: 13  [0 байт/сек]
Пред. тема | След. тема 

Автор
Сообщение

СообщениеДобавлено: 18 янв 2014, 16:57 

Ответить с цитатой 

Scorpions - MTV Unplugged Live In Athens

Жанр: Rock
Продолжительность: 02:09:51
Год выпуска: 2013

Треклист:
01. Sting In The Tail
02. Can't Live Without You
03. Pictured Life
04. Speedy's Coming
05. Born To Touch Your Feelings
06. The Best Is Yet to Come
07. Dancing With The Moonlight
08. In Trance (with Cthe)
09. When You Came Into My Life
10. Delicate Dance (Matthias Solo)
11. Love Is The Answer (Rudolf Solo)
12. Follow Your Heart (Klaus Solo)
13. Send Me An Angel
14. Where The River Flows
15. Passion Rules The Game
16. Rock You Like A Hurricane (with Johannes Strate)
17. Hit Between The Eyes
18. Drum-Athenica, PiTTi vs. James
19. Rock 'n' Roll Band
20. Blackout
21. Still Loving You
22. Big City Nights
23. Wind Of Change (with Morten Harket)
24. No One Like You
25. When The Smoke Is Going Down

Состав: Klaus Meine, Rudolf Schenker, Matthias Jabs, Pawel Maciwoda, James Kottak

Качество: Blu-ray
Контейнер: BDMV
Аудио кодек: DTS-HD Master / LPCM
Видео: MPEG-4 AVC Video / 24996 kbps / 1080i / 29,970 fps / 16:9 / High Profile 4.1
Аудио 1: English / LPCM Audio / 2.0 / 48 kHz / 1536 kbps / 16-bit
Аудио 2: English / DTS-HD Master Audio / 5.1 / 48 kHz / 4780 kbps / 24-bit (DTS Core: 5.1 / 48 kHz / 1509 kbps / 24-bit)
Отчёт MediaInfo / BDInfo
Код:
Disc Title:     [BDV][OF] - Scorpions - MTV Unplugged Live In Athens (2013)
Disc Size:      41 813 946 429 bytes
Protection:     AACS
BD-Java:        No
BDInfo:         0.5.8

Notes:

BDINFO HOME:
  Cinema Squid
    [url=http://www.cinemasquid.com/blu-ray/tools/bdinfo]http://www.cinemasquid.com/blu-ray/tools/bdinfo[/url]

INCLUDES FORUMS REPORT FOR:
  AVS Forum Blu-ray Audio and Video Specifications Thread
    [url=http://www.avsforum.com/avs-vb/showthread.php?t=1155731]http://www.avsforum.com/avs-vb/showthread.php?t=1155731[/url]

********************
PLAYLIST: 00000.MPLS
********************

<--- BEGIN FORUMS PASTE --->
Код:
Код:
Total   Video
Title                                                           Codec   Length  Movie Size      Disc Size       Bitrate Bitrate Main Audio Track                          Secondary Audio Track
-----                                                           ------  ------- --------------  --------------  ------- ------- ------------------                        ---------------------
00000.MPLS                                                      AVC     2:09:51 32 367 845 376  41 813 946 429  33,23   25,00   LPCM 2.0 1536Kbps (48kHz/16-bit)          DTS-HD Master 5.1 4780Kbps (48kHz/24-bit)

Код:
Код:
DISC INFO:

Disc Title:     [BDV][OF] - Scorpions - MTV Unplugged Live In Athens (2013)
Disc Size:      41 813 946 429 bytes
Protection:     AACS
BD-Java:        No
BDInfo:         0.5.8

PLAYLIST REPORT:

Name:                   00000.MPLS
Length:                 2:09:51.984 (h:m:s.ms)
Size:                   32 367 845 376 bytes
Total Bitrate:          33,23 Mbps

VIDEO:

Codec                   Bitrate             Description
-----                   -------             -----------
MPEG-4 AVC Video        24996 kbps          1080i / 29,970 fps / 16:9 / High Profile 4.1

AUDIO:

Codec                           Language        Bitrate         Description
-----                           --------        -------         -----------
LPCM Audio                      English         1536 kbps       2.0 / 48 kHz / 1536 kbps / 16-bit
DTS-HD Master Audio             English         4780 kbps       5.1 / 48 kHz / 4780 kbps / 24-bit (DTS Core: 5.1 / 48 kHz / 1509 kbps / 24-bit)

FILES:

Name            Time In         Length          Size            Total Bitrate
----            -------         ------          ----            -------------
00000.M2TS      0:00:00.000     2:09:51.650     32 367 833 088  33 233
00002.M2TS      2:09:51.650     0:00:00.333     12 288          295

CHAPTERS:

Number          Time In         Length          Avg Video Rate  Max 1-Sec Rate  Max 1-Sec Time  Max 5-Sec Rate  Max 5-Sec Time  Max 10Sec Rate  Max 10Sec Time  Avg Frame Size  Max Frame Size  Max Frame Time
------          -------         ------          --------------  --------------  --------------  --------------  --------------  --------------  --------------  --------------  --------------  --------------
1               0:00:00.000     0:05:10.910     24 544 kbps     41 136 kbps     00:04:34.140    36 012 kbps     00:00:03.370    32 907 kbps     00:00:03.136    102 356 bytes   413 673 bytes   00:00:06.373
2               0:05:10.910     0:04:18.424     26 246 kbps     40 847 kbps     00:08:36.649    35 800 kbps     00:05:38.805    33 612 kbps     00:05:36.803    109 468 bytes   391 893 bytes   00:07:29.916
3               0:09:29.335     0:04:53.593     24 104 kbps     39 857 kbps     00:11:06.499    33 916 kbps     00:09:50.289    31 391 kbps     00:09:45.017    100 532 bytes   349 556 bytes   00:11:07.333
4               0:14:22.928     0:04:32.071     23 858 kbps     35 234 kbps     00:14:35.107    30 921 kbps     00:16:50.008    30 318 kbps     00:16:45.004    99 509 bytes    298 882 bytes   00:18:21.200
5               0:18:55.000     0:06:51.377     22 343 kbps     40 296 kbps     00:24:41.179    35 887 kbps     00:22:51.536    32 815 kbps     00:22:47.566    93 189 bytes    329 309 bytes   00:25:36.601
6               0:25:46.378     0:05:17.417     24 592 kbps     38 578 kbps     00:29:32.070    33 420 kbps     00:27:59.611    30 814 kbps     00:26:41.666    102 571 bytes   316 050 bytes   00:29:17.689
7               0:31:03.795     0:04:28.201     24 144 kbps     39 658 kbps     00:33:40.685    32 396 kbps     00:35:23.821    30 520 kbps     00:35:21.986    100 701 bytes   372 464 bytes   00:33:40.718
8               0:35:31.996     0:04:59.565     27 619 kbps     40 220 kbps     00:39:52.923    38 104 kbps     00:39:51.455    35 903 kbps     00:39:46.450    115 194 bytes   409 265 bytes   00:37:03.087
9               0:40:31.562     0:05:27.794     23 342 kbps     39 063 kbps     00:42:11.729    37 116 kbps     00:42:07.725    32 675 kbps     00:42:03.621    97 356 bytes    340 446 bytes   00:42:07.758
10              0:45:59.356     0:05:36.502     26 061 kbps     39 869 kbps     00:48:55.332    36 446 kbps     00:48:51.495    33 370 kbps     00:48:52.562    108 695 bytes   356 076 bytes   00:49:44.081
11              0:51:35.859     0:05:00.466     24 790 kbps     40 523 kbps     00:53:08.952    39 675 kbps     00:53:04.848    37 319 kbps     00:53:02.946    103 396 bytes   318 791 bytes   00:55:00.430
12              0:56:36.326     0:03:12.225     24 296 kbps     40 253 kbps     00:57:36.319    33 365 kbps     00:57:09.793    32 342 kbps     00:57:05.922    101 334 bytes   345 733 bytes   00:57:07.991
13              0:59:48.551     0:06:43.636     27 284 kbps     41 172 kbps     01:01:37.326    39 969 kbps     01:00:20.049    39 353 kbps     01:03:06.382    113 795 bytes   394 588 bytes   01:01:35.358
14              1:06:32.188     0:04:21.728     24 170 kbps     36 903 kbps     01:08:12.388    32 977 kbps     01:07:27.743    31 255 kbps     01:07:56.772    100 810 bytes   339 601 bytes   01:08:02.078
15              1:10:53.916     0:06:00.693     25 376 kbps     40 658 kbps     01:12:52.768    38 815 kbps     01:12:48.864    33 714 kbps     01:12:48.864    105 839 bytes   380 689 bytes   01:11:58.213
16              1:16:54.610     0:05:36.502     24 808 kbps     35 955 kbps     01:19:49.618    33 948 kbps     01:20:13.608    32 194 kbps     01:20:13.208    103 470 bytes   402 289 bytes   01:18:14.790
17              1:22:31.112     0:04:57.997     26 059 kbps     40 857 kbps     01:24:22.791    34 710 kbps     01:24:19.287    31 155 kbps     01:25:38.900    108 686 bytes   341 181 bytes   01:24:35.837
18              1:27:29.110     0:06:13.172     27 645 kbps     41 874 kbps     01:31:30.952    40 163 kbps     01:31:29.050    39 712 kbps     01:31:27.849    115 302 bytes   399 433 bytes   01:31:31.919
19              1:33:42.283     0:04:37.276     26 762 kbps     40 632 kbps     01:34:17.852    37 816 kbps     01:34:14.849    36 812 kbps     01:34:15.449    111 619 bytes   387 298 bytes   01:36:43.230
20              1:38:19.560     0:05:13.646     26 563 kbps     39 745 kbps     01:42:12.025    34 492 kbps     01:38:47.655    32 299 kbps     01:38:45.653    110 790 bytes   331 799 bytes   01:40:34.995
21              1:43:33.207     0:04:02.408     23 433 kbps     33 061 kbps     01:44:52.319    30 522 kbps     01:46:00.220    27 480 kbps     01:46:00.253    97 736 bytes    280 657 bytes   01:45:51.611
22              1:47:35.615     0:04:35.708     25 430 kbps     40 723 kbps     01:48:59.766    39 796 kbps     01:51:29.149    32 995 kbps     01:51:26.012    106 065 bytes   335 032 bytes   01:51:29.182
23              1:52:11.324     0:05:43.543     24 827 kbps     40 452 kbps     01:57:36.416    39 874 kbps     01:56:35.922    37 439 kbps     01:56:34.253    103 551 bytes   347 292 bytes   01:57:26.439
24              1:57:54.867     0:05:07.540     24 645 kbps     40 779 kbps     02:01:47.099    38 090 kbps     02:01:45.698    34 107 kbps     02:01:44.697    102 790 bytes   327 878 bytes   02:01:47.733
25              2:03:02.408     0:04:17.190     25 055 kbps     37 384 kbps     02:03:47.653    32 400 kbps     02:03:44.550    31 049 kbps     02:06:25.578    104 499 bytes   355 493 bytes   02:07:11.390
26              2:07:19.598     0:02:32.385     16 977 kbps     40 505 kbps     02:07:53.332    39 696 kbps     02:07:53.132    38 787 kbps     02:07:49.361    70 825 bytes    371 252 bytes   02:08:09.448

STREAM DIAGNOSTICS:

File            PID             Type            Codec           Language                Seconds                 Bitrate                 Bytes           Packets
----            ---             ----            -----           --------                --------------          --------------          -------------   -----
00000.M2TS      4113 (0x1011)   0x1B            AVC                                     7791,517                24 998                  24 346 528 372  132 454 284
00000.M2TS      4352 (0x1100)   0x80            LPCM            eng (English)           7791,517                1 542                   1 502 230 120   9 349 980
00000.M2TS      4353 (0x1101)   0x86            DTS-HD MA       eng (English)           7791,517                4 780                   4 655 526 932   26 517 136
00002.M2TS      4113 (0x1011)   0x1B            AVC                                     0,200                   244                     6 105           41

Код:
<---- END FORUMS PASTE ---->

QUICK SUMMARY:

Disc Title: [BDV][OF] - Scorpions - MTV Unplugged Live In Athens (2013)
Disc Size: 41 813 946 429 bytes
Protection: AACS
BD-Java: No
Playlist: 00000.MPLS
Size: 32 367 845 376 bytes
Length: 2:09:51.984
Total Bitrate: 33,23 Mbps
Video: MPEG-4 AVC Video / 24996 kbps / 1080i / 29,970 fps / 16:9 / High Profile 4.1
Audio: English / LPCM Audio / 2.0 / 48 kHz / 1536 kbps / 16-bit
Audio: English / DTS-HD Master Audio / 5.1 / 48 kHz / 4780 kbps / 24-bit (DTS Core: 5.1 / 48 kHz / 1509 kbps / 24-bit)

********************
PLAYLIST: 00001.MPLS
********************

<--- BEGIN FORUMS PASTE --->
Код:
Код:
Total   Video
Title                                                           Codec   Length  Movie Size      Disc Size       Bitrate Bitrate Main Audio Track                          Secondary Audio Track
-----                                                           ------  ------- --------------  --------------  ------- ------- ------------------                        ---------------------
00001.MPLS                                                      AVC     0:41:43 8 955 746 304   41 813 946 429  28,61   24,99   LPCM 2.0 2304Kbps (48kHz/24-bit)

Код:
Код:
DISC INFO:

Disc Title:     [BDV][OF] - Scorpions - MTV Unplugged Live In Athens (2013)
Disc Size:      41 813 946 429 bytes
Protection:     AACS
BD-Java:        No
BDInfo:         0.5.8

PLAYLIST REPORT:

Name:                   00001.MPLS
Length:                 0:41:43.968 (h:m:s.ms)
Size:                   8 955 746 304 bytes
Total Bitrate:          28,61 Mbps

VIDEO:

Codec                   Bitrate             Description
-----                   -------             -----------
MPEG-4 AVC Video        24991 kbps          1080i / 29,970 fps / 16:9 / High Profile 4.1

AUDIO:

Codec                           Language        Bitrate         Description
-----                           --------        -------         -----------
LPCM Audio                      German          2304 kbps       2.0 / 48 kHz / 2304 kbps / 24-bit

FILES:

Name            Time In         Length          Size            Total Bitrate
----            -------         ------          ----            -------------
00001.M2TS      0:00:00.000     0:41:43.634     8 955 734 016   28 617
00002.M2TS      0:41:43.634     0:00:00.333     12 288          295

CHAPTERS:

Number          Time In         Length          Avg Video Rate  Max 1-Sec Rate  Max 1-Sec Time  Max 5-Sec Rate  Max 5-Sec Time  Max 10Sec Rate  Max 10Sec Time  Avg Frame Size  Max Frame Size  Max Frame Time
------          -------         ------          --------------  --------------  --------------  --------------  --------------  --------------  --------------  --------------  --------------  --------------
1               0:00:00.000     0:07:46.032     24 523 kbps     41 524 kbps     00:07:01.654    37 752 kbps     00:04:45.652    33 834 kbps     00:00:11.544    102 274 bytes   415 821 bytes   00:07:46.032
2               0:07:46.032     0:07:20.239     28 856 kbps     41 377 kbps     00:10:39.772    40 014 kbps     00:10:30.096    39 892 kbps     00:10:30.763    120 355 bytes   461 475 bytes   00:11:52.478
3               0:15:06.272     0:07:10.897     26 024 kbps     42 262 kbps     00:15:10.376    39 728 kbps     00:16:46.171    38 904 kbps     00:16:46.105    108 542 bytes   424 448 bytes   00:16:52.711
4               0:22:17.169     0:07:01.554     23 582 kbps     40 924 kbps     00:23:01.213    38 145 kbps     00:22:41.693    37 175 kbps     00:22:24.643    98 355 bytes    403 843 bytes   00:22:25.243
5               0:29:18.723     0:05:27.827     23 114 kbps     40 484 kbps     00:31:39.731    34 905 kbps     00:31:39.731    31 913 kbps     00:31:39.731    96 406 bytes    334 472 bytes   00:31:39.764
6               0:34:46.551     0:06:57.417     23 270 kbps     40 744 kbps     00:41:30.788    35 133 kbps     00:41:30.788    33 894 kbps     00:41:28.419    97 064 bytes    328 951 bytes   00:41:30.821

STREAM DIAGNOSTICS:

File            PID             Type            Codec           Language                Seconds                 Bitrate                 Bytes           Packets
----            ---             ----            -----           --------                --------------          --------------          -------------   -----
00001.M2TS      4113 (0x1011)   0x1B            AVC                                     2503,501                24 996                  7 822 218 959   42 555 697
00001.M2TS      4352 (0x1100)   0x80            LPCM            deu (German)            2503,501                2 310                   722 876 508     4 004 856
00002.M2TS      4113 (0x1011)   0x1B            AVC                                     0,200                   244                     6 105           41

Код:
<---- END FORUMS PASTE ---->

QUICK SUMMARY:

Disc Title: [BDV][OF] - Scorpions - MTV Unplugged Live In Athens (2013)
Disc Size: 41 813 946 429 bytes
Protection: AACS
BD-Java: No
Playlist: 00001.MPLS
Size: 8 955 746 304 bytes
Length: 0:41:43.968
Total Bitrate: 28,61 Mbps
Video: MPEG-4 AVC Video / 24991 kbps / 1080i / 29,970 fps / 16:9 / High Profile 4.1
Audio: German / LPCM Audio / 2.0 / 48 kHz / 2304 kbps / 24-bit

********************
PLAYLIST: 00002.MPLS
********************

<--- BEGIN FORUMS PASTE --->
Код:
Код:
Total   Video
Title                                                           Codec   Length  Movie Size      Disc Size       Bitrate Bitrate Main Audio Track                          Secondary Audio Track
-----                                                           ------  ------- --------------  --------------  ------- ------- ------------------                        ---------------------
00002.MPLS                                                      AVC     0:01:06 225 183 744     41 813 946 429  27,10   22,00   LPCM 2.0 1536Kbps (48kHz/16-bit)          LPCM 2.0 1536Kbps (48kHz/16-bit)

Код:
Код:
DISC INFO:

Disc Title:     [BDV][OF] - Scorpions - MTV Unplugged Live In Athens (2013)
Disc Size:      41 813 946 429 bytes
Protection:     AACS
BD-Java:        No
BDInfo:         0.5.8

PLAYLIST REPORT:

Name:                   00002.MPLS
Length:                 0:01:06.466 (h:m:s.ms)
Size:                   225 183 744 bytes
Total Bitrate:          27,10 Mbps

VIDEO:

Codec                   Bitrate             Description
-----                   -------             -----------
MPEG-4 AVC Video        22000 kbps          1080i / 29,970 fps / 16:9 / High Profile 4.1

AUDIO:

Codec                           Language        Bitrate         Description
-----                           --------        -------         -----------
LPCM Audio                      English         1536 kbps       2.0 / 48 kHz / 1536 kbps / 16-bit
LPCM Audio                      English         1536 kbps       2.0 / 48 kHz / 1536 kbps / 16-bit

SUBTITLES:

Codec                           Language        Bitrate         Description
-----                           --------        -------         -----------
Interactive Graphics            English         361,341 kbps

FILES:

Name            Time In         Length          Size            Total Bitrate
----            -------         ------          ----            -------------
00004.M2TS      0:00:00.000     0:01:06.466     225 183 744     27 103

CHAPTERS:

Number          Time In         Length          Avg Video Rate  Max 1-Sec Rate  Max 1-Sec Time  Max 5-Sec Rate  Max 5-Sec Time  Max 10Sec Rate  Max 10Sec Time  Avg Frame Size  Max Frame Size  Max Frame Time
------          -------         ------          --------------  --------------  --------------  --------------  --------------  --------------  --------------  --------------  --------------  --------------
1               0:00:00.000     0:00:08.742     22 221 kbps     25 622 kbps     00:00:01.735    22 830 kbps     00:00:00.200    0 kbps          00:00:00.000    92 326 bytes    465 736 bytes   00:00:00.967
2               0:00:08.742     0:00:57.724     21 967 kbps     24 422 kbps     00:00:31.164    22 781 kbps     00:00:31.131    22 267 kbps     00:00:31.031    91 673 bytes    338 704 bytes   00:00:52.552

STREAM DIAGNOSTICS:

File            PID             Type            Codec           Language                Seconds                 Bitrate                 Bytes           Packets
----            ---             ----            -----           --------                --------------          --------------          -------------   -----
00004.M2TS      4113 (0x1011)   0x1B            AVC                                     66,333                  22 044                  182 783 671     994 560
00004.M2TS      4352 (0x1100)   0x80            LPCM            eng (English)           66,333                  1 546                   12 821 200      79 800
00004.M2TS      4353 (0x1101)   0x80            LPCM            eng (English)           66,333                  1 546                   12 821 200      79 800
00004.M2TS      5120 (0x1400)   0x91            IGS             eng (English)           66,333                  362                     3 002 133       16 441

Код:
<---- END FORUMS PASTE ---->

QUICK SUMMARY:

Disc Title: [BDV][OF] - Scorpions - MTV Unplugged Live In Athens (2013)
Disc Size: 41 813 946 429 bytes
Protection: AACS
BD-Java: No
Playlist: 00002.MPLS
Size: 225 183 744 bytes
Length: 0:01:06.466
Total Bitrate: 27,10 Mbps
Video: MPEG-4 AVC Video / 22000 kbps / 1080i / 29,970 fps / 16:9 / High Profile 4.1
Audio: English / LPCM Audio / 2.0 / 48 kHz / 1536 kbps / 16-bit
Audio: English / LPCM Audio / 2.0 / 48 kHz / 1536 kbps / 16-bit
Subtitle: English / 361,341 kbps

********************
PLAYLIST: 00004.MPLS
********************

<--- BEGIN FORUMS PASTE --->
Код:
Код:
Total   Video
Title                                                           Codec   Length  Movie Size      Disc Size       Bitrate Bitrate Main Audio Track                          Secondary Audio Track
-----                                                           ------  ------- --------------  --------------  ------- ------- ------------------                        ---------------------
00004.MPLS                                                      AVC     0:00:22 65 519 616      41 813 946 429  23,03   22,00

Код:
Код:
DISC INFO:

Disc Title:     [BDV][OF] - Scorpions - MTV Unplugged Live In Athens (2013)
Disc Size:      41 813 946 429 bytes
Protection:     AACS
BD-Java:        No
BDInfo:         0.5.8

PLAYLIST REPORT:

Name:                   00004.MPLS
Length:                 0:00:22.756 (h:m:s.ms)
Size:                   65 519 616 bytes
Total Bitrate:          23,03 Mbps

VIDEO:

Codec                   Bitrate             Description
-----                   -------             -----------
MPEG-4 AVC Video        22000 kbps          1080i / 29,970 fps / 16:9 / High Profile 4.1

FILES:

Name            Time In         Length          Size            Total Bitrate
----            -------         ------          ----            -------------
00008.M2TS      0:00:00.000     0:00:22.756     65 519 616      23 034

CHAPTERS:

Number          Time In         Length          Avg Video Rate  Max 1-Sec Rate  Max 1-Sec Time  Max 5-Sec Rate  Max 5-Sec Time  Max 10Sec Rate  Max 10Sec Time  Avg Frame Size  Max Frame Size  Max Frame Time
------          -------         ------          --------------  --------------  --------------  --------------  --------------  --------------  --------------  --------------  --------------  --------------
1               0:00:00.000     0:00:22.756     22 000 kbps     29 578 kbps     00:00:07.240    23 308 kbps     00:00:07.107    22 455 kbps     00:00:00.000    91 759 bytes    613 874 bytes   00:00:11.010

STREAM DIAGNOSTICS:

File            PID             Type            Codec           Language                Seconds                 Bitrate                 Bytes           Packets
----            ---             ----            -----           --------                --------------          --------------          -------------   -----
00008.M2TS      4113 (0x1011)   0x1B            AVC                                     22,656                  22 097                  62 579 555      340 452

Код:
<---- END FORUMS PASTE ---->

QUICK SUMMARY:

Disc Title: [BDV][OF] - Scorpions - MTV Unplugged Live In Athens (2013)
Disc Size: 41 813 946 429 bytes
Protection: AACS
BD-Java: No
Playlist: 00004.MPLS
Size: 65 519 616 bytes
Length: 0:00:22.756
Total Bitrate: 23,03 Mbps
Video: MPEG-4 AVC Video / 22000 kbps / 1080i / 29,970 fps / 16:9 / High Profile 4.1
Скриншоты

Вкладыш, накатка
Правила, инструкции, FAQ!!!
Торрент  Добавлен [18 янв 2014, 16:57] Скачать торрент Магнет ссылка
Скачать торрент
[ Размер 197.48 КБ / Просмотров 36 ]

Статус  
 
Размер  38.94 ГБ
Приватный: Нет (DHT включён)
.torrent скачан  1
Как залить торрент? | Как скачать Torrent? | Ошибка в торренте? Качайте магнет  


     Отправить личное сообщение
   
Страница 1 из 1
Показать сообщения за:  Поле сортировки  
Начать новую тему Ответить на тему

   Похожие торренты   Автор   Ответы   Просмотры   Последнее сообщение 
В этой теме нет новых непрочитанных сообщений. Скачать торрент Проверен Scorpions - MTV Unplugged Live In Athens [2013, Rock, BDRip 1080p]

в форуме Концерты (HD-Video), Размер: 13.34 ГБ, Здоровье: 100%

Гость

0
114|39

169
12

29 апр 2015, 19:32

Гость Перейти к последнему сообщению

В этой теме нет новых непрочитанных сообщений. Скачать торрент Проверен Scorpions - MTV Unplugged - Live in Athens [2013, Rock, HDTV 1080i]

в форуме Концерты (HD-Video), Размер: 3.49 ГБ, Здоровье: 18%

Anonymous

0
4|22

128
2

23 окт 2016, 13:09

Anonymous Перейти к последнему сообщению

В этой теме нет новых непрочитанных сообщений. Скачать торрент Проверен Scorpions - MTV Unplugged- Live In Athens (2014) 3CD, Limited Tour Edition [FLAC|Lossless]<Hard Rock>

в форуме Рок, Панк, Метал, Альтернатива, Размер: 1.06 ГБ, Здоровье: 100%

Anonymous

0
31|3

208
2

21 июл 2014, 10:47

Anonymous Перейти к последнему сообщению

В этой теме нет новых непрочитанных сообщений. Скачать торрент Проверен (Hard Rock) [CD] Scorpions - MTV Unplugged In Athens - 2013, FLAC (image+.cue), lossless

в форуме Classic Rock & Hard Rock, Размер: 356.81 МБ, Здоровье: 100%

Anonymous

0
7|2

39
0

04 сен 2016, 21:24

Anonymous Перейти к последнему сообщению

В этой теме нет новых непрочитанных сообщений. Скачать торрент Проверен Scorpions - MTV Unplugged in Athens (2013) 2CD [FLAC (image+.cue)|Lossless]<Hard Rock>

в форуме Рок, Панк, Метал, Альтернатива, Размер: 881.37 МБ, Здоровье: 100%

Anonymous

0
12|6

161
0

21 июл 2014, 10:29

Anonymous Перейти к последнему сообщению



Сейчас этот форум просматривают: нет зарегистрированных пользователей и гости: 4


Вы не можете начинать темы
Вы не можете отвечать на сообщения
Вы не можете редактировать свои сообщения
Вы не можете удалять свои сообщения
Вы не можете добавлять вложения

Перейти:  
Ресурс не предоставляет электронные версии произведений, а занимается лишь коллекционированием и каталогизацией ссылок, присылаемых и публикуемых на форуме нашими читателями. Если вы являетесь правообладателем какого-либо представленного материала и не желаете чтобы ссылка на него находилась в нашем каталоге, свяжитесь с нами и мы незамедлительно удалим её. Файлы для обмена на трекере предоставлены пользователями сайта, и администрация не несёт ответственности за их содержание. Просьба не заливать файлы, защищенные авторскими правами, а также файлы нелегального содержания!
cron