На всех торрентах на трекере установлена скидка на скачивание в размере 100 процентов(а).
 Возможность скачивания торрента НЕ зависит от ограничений при низком ратио, низком аплоаде, требуемом ратио или требуемом аплоаде.


Начать новую тему Ответить на тему
Статистика раздачи
Размер: 8.54 ГБ | Добавлен: 17 июн 2018, 18:40 | Скачали: 818
Сидеров: 297  [0 байт/сек]    Личеров: 125  [0 байт/сек]
Пред. тема | След. тема 

Автор
Сообщение

СообщениеДобавлено: 17 июн 2018, 18:40 

Ответить с цитатой 

Название: Секретное досье
Оригинальное название: The Post
Год выпуска: 2017
Жанр: Триллер, драма, биография, история
Режиссер: Стивен Спилберг
В ролях: Мэрил Стрип, Том Хэнкс, Сара Полсон, Боб Оденкёрк, Трэйси Леттс, Брэдли Уитфорд, Брюс Гринвуд, Мэттью Рис, Элисон Бри, Кэрри Кун

О фильме:
История Кэтрин Грэм, первой женщины-издателя газеты «Вашингтон пост», и редактора Бена Брэдли. Они вступают в гонку с «Нью-Йорк таймс» за право пролить свет на государственные тайны, скрывавшиеся более 30 лет. Журналистам придется преодолеть свои разногласия и рискнуть карьерой и свободой, чтобы мир узнал правду.



Страна: США
Студия: Amblin Entertainment, DreamWorks SKG
Продолжительность: 01:55:58
Перевод: Дублированный | Лицензия

Формат: MKV, BDRip 1080p
Видео: MPEG-4 AVC, 10101 Кбит/с, 1920x1034
Aудио#1: [RUS] AC3 | 48 KHz | 5.1 (Front: L С R Side: L R) + LFE | ~448 kbps
Субтитры: русские форсированные


Общее
Уникальный идентификатор : 242402719222111974882191438591530418636 (0xB65D10C837AA28D59D3055C5F6C0C1CC)
Полное имя : H:The.Post.(2017).BDRip-1080p.MegaPeer.(qqss44).mkv
Формат : Matroska
Версия формата : Version 2
Размер файла : 8,54 Гбайт
Продолжительность : 1 ч. 55 м.
Общий поток : 10,5 Мбит/сек
Название фильма : The.Post.(2017).BDRip-1080p.MegaPeer.(qqss44)
Дата кодирования : UTC 2018-06-16 15:30:21
Программа кодирования : mkvmerge v5.8.0 ('No Sleep / Pillow') built on Sep 2 2012 15:37:04
Библиотека кодирования : libebml v1.2.3 + libmatroska v1.3.0

Видео
Идентификатор : 1
Формат : AVC
Формат/Информация : Advanced Video Codec
Профиль формата : High@L4.1
Параметр CABAC формата : Да
Параметр ReFrames формата : 4 кадра
Идентификатор кодека : V_MPEG4/ISO/AVC
Продолжительность : 1 ч. 55 м.
Битрейт : 10,1 Мбит/сек
Ширина : 1920 пикселей
Высота : 1034 пикселя
Соотношение сторон : 1,85:1
Режим частоты кадров : Постоянный
Частота кадров : 23,976 (24000/1001) кадра/сек
Цветовое пространство : YUV
Субдискретизация насыщенности : 4:2:0
Битовая глубина : 8 бит
Тип развёртки : Прогрессивная
Бит/(Пиксели*Кадры) : 0.212
Размер потока : 8,01 Гбайт (94%)
Библиотека кодирования : x264 core 152 r2851 ba24899
Настройки программы : cabac=1 / ref=4 / deblock=1:-3:-3 / analyse=0x3:0x113 / me=umh / subme=11 / psy=1 / psy_rd=1.00:0.00 / mixed_ref=1 / me_range=32 / chroma_me=1 / trellis=2 / 8x8dct=1 / cqm=0 / deadzone=21,11 / fast_pskip=0 / chroma_qp_offset=-2 / threads=12 / lookahead_threads=2 / sliced_threads=0 / nr=0 / decimate=0 / interlaced=0 / bluray_compat=0 / constrained_intra=0 / bframes=7 / b_pyramid=2 / b_adapt=2 / b_bias=0 / direct=3 / weightb=1 / open_gop=0 / weightp=2 / keyint=250 / keyint_min=23 / scenecut=40 / intra_refresh=0 / rc_lookahead=40 / rc=2pass / mbtree=0 / bitrate=10101 / ratetol=1.0 / qcomp=0.70 / qpmin=0 / qpmax=69 / qpstep=4 / cplxblur=20.0 / qblur=0.5 / vbv_maxrate=50000 / vbv_bufsize=62500 / nal_hrd=none / filler=0 / ip_ratio=1.40 / pb_ratio=1.30 / aq=3:0.80
Язык : English
Default : Да
Forced : Нет

Аудио
Идентификатор : 2
Формат : AC-3
Формат/Информация : Audio Coding 3
Расширение режима : CM (complete main)
Параметр Endianness формата : Big
Идентификатор кодека : A_AC3
Продолжительность : 1 ч. 55 м.
Вид битрейта : Постоянный
Битрейт : 448 Кбит/сек
Каналы : 6 каналов
Расположение каналов : Front: L C R, Side: L R, LFE
Частота : 48,0 КГц
Частота кадров : 31,250 кадров/сек (1536 spf)
Метод сжатия : С потерями
Размер потока : 372 Мбайт (4%)
Язык : Russian
Default : Да
Forced : Нет

Текст
Идентификатор : 3
Формат : UTF-8
Идентификатор кодека : S_TEXT/UTF8
Идентификатор кодека/Информация : UTF-8 Plain Text
Заголовок : FORCED
Язык : Russian
Default : Да
Forced : Нет

Меню
00:00:00.000 : en:Chapter 01
00:05:01.926 : en:Chapter 02
00:10:08.733 : en:Chapter 03
00:12:32.793 : en:Chapter 04
00:16:22.398 : en:Chapter 05
00:19:19.616 : en:Chapter 06
00:24:53.325 : en:Chapter 07
00:30:23.988 : en:Chapter 08
00:34:51.672 : en:Chapter 09
00:39:08.679 : en:Chapter 10
00:43:25.811 : en:Chapter 11
00:48:20.564 : en:Chapter 12
00:54:38.692 : en:Chapter 13
00:59:39.784 : en:Chapter 14
01:03:49.116 : en:Chapter 15
01:09:59.570 : en:Chapter 16
01:14:04.857 : en:Chapter 17
01:20:20.273 : en:Chapter 18
01:24:30.732 : en:Chapter 19
01:30:22.667 : en:Chapter 20
01:35:23.759 : en:Chapter 21
01:38:46.545 : en:Chapter 22
01:43:07.723 : en:Chapter 23
01:49:27.852 : en:Chapter 24

Правила, инструкции, FAQ!!!
Торрент  Добавлен [17 июн 2018, 18:40] Скачать торрент Магнет ссылка
Скачать торрент
[ Размер 43.7 КБ / Просмотров 56 ]

Статус
Проверен 
 
Размер  8.54 ГБ
Приватный: Нет (DHT включён)
.torrent скачан  818
Как залить торрент? | Как скачать Torrent? | Ошибка в торренте? Качайте магнет  


     Отправить личное сообщение
   
Страница 1 из 1
Показать сообщения за:  Поле сортировки  
Начать новую тему Ответить на тему

   Похожие торренты   Автор   Ответы   Просмотры   Последнее сообщение 
В этой теме нет новых непрочитанных сообщений. Скачать торрент Проверен Секретное досье / The Post (2017) HDRip | Лицензия

в форуме Триллеры, Размер: 1.45 ГБ, Здоровье: 100%

Гость

0
246|26

94
476

17 июн 2018, 18:25

Гость Перейти к последнему сообщению

В этой теме нет новых непрочитанных сообщений. Скачать торрент Лен Дейтон | Секретное досье (2013) [FB2]

в форуме Детективы и Боевики, Размер: 1.1 МБ, Здоровье: 8%

Anonymous

0
7|84

90
0

18 апр 2014, 00:21

Anonymous Перейти к последнему сообщению

В этой теме нет новых непрочитанных сообщений. Скачать торрент Проверен Оно / It (2017) BDRip 1080p | Лицензия

в форуме 720p | 1080p, Размер: 7.57 ГБ, Здоровье: 100%

Гость

0
465|23

161
13809

26 фев 2018, 21:37

Гость Перейти к последнему сообщению

В этой теме нет новых непрочитанных сообщений. Скачать торрент Обновлён Гадкий я 3 / Despicable Me 3 (2017) BDRip 1080p | Лицензия

в форуме Зарубежные мультфильмы (HD Video), Размер: 5.6 ГБ, Здоровье: 100%

Гость

0
276|96

433
72

21 сен 2017, 22:56

Гость Перейти к последнему сообщению

В этой теме нет новых непрочитанных сообщений. Скачать торрент Проверен Тачки 3 / Cars 3 (2017) BDRip 1080p | Лицензия

в форуме Зарубежные мультфильмы (HD Video), Размер: 5.75 ГБ, Здоровье: 100%

Гость

0
278|8

749
3

20 ноя 2017, 00:58

Гость Перейти к последнему сообщению



Сейчас этот форум просматривают: нет зарегистрированных пользователей и гости: 0


Вы не можете начинать темы
Вы не можете отвечать на сообщения
Вы не можете редактировать свои сообщения
Вы не можете удалять свои сообщения
Вы не можете добавлять вложения

Перейти:  
Ресурс не предоставляет электронные версии произведений, а занимается лишь коллекционированием и каталогизацией ссылок, присылаемых и публикуемых на форуме нашими читателями. Если вы являетесь правообладателем какого-либо представленного материала и не желаете чтобы ссылка на него находилась в нашем каталоге, свяжитесь с нами и мы незамедлительно удалим её. Файлы для обмена на трекере предоставлены пользователями сайта, и администрация не несёт ответственности за их содержание. Просьба не заливать файлы, защищенные авторскими правами, а также файлы нелегального содержания!
cron