На всех торрентах на трекере установлена скидка на скачивание в размере 100 процентов(а).
 Возможность скачивания торрента НЕ зависит от ограничений при низком ратио, низком аплоаде, требуемом ратио или требуемом аплоаде.


Начать новую тему Ответить на тему
Статистика раздачи
Размер: 8.51 ГБ | Добавлен: 18 янв 2014, 18:45 | Скачали: 3
Сидеров: 28  [0 байт/сек]    Личеров: 7  [0 байт/сек]
Пред. тема | След. тема 

Автор
Сообщение

СообщениеДобавлено: 18 янв 2014, 18:45 

Ответить с цитатой 

System Of A Down - 2013.08.17 - Rock'n'Heim

Жанр: Alternative Metal
Продолжительность: 01:33:29
Год выпуска: 2013
Трек-лист:
00. Preshow footage/interviews
01 .Aerials
02. Suite-Pee
03. Prison Song
04. I-E-A-I-A-I-O
05. Soldier Side - Intro
06. B.Y.O.B.
07. Deer Dance
08. Radio/Video
09. Hypnotize
10. Needles
11. DDevil
12. Lost In Hollywood
13. X
14. Suggestions
15. Psycho
16. Chop Suey!
17. Lonely Day
18. Question!
19. A.D.D.
20. Spiders
21. Cigaro
22. Toxicity
23. Sugar
Качество: HDTV 720p
Контейнер: TS
Видео кодек: H.264
Аудио кодек: MP2
Видео: H264 1280x720 50fps 11.7 Mbps
Аудио: MP2 256 kbit/s 48.0 KHz 2 channels
Аудио 2: AC3 448 kbit/s 48.0 KHz 2 channels
Отчёт MediaInfo / BDInfo
Код:
General
ID                             : 1 (0x1)
Complete name                  : H:\System Of A Down - 2013-08-17 Rock 'n' Heim HDTV 720p\System Of A Down - 2013-08-17 Rock 'n' Heim HDTV 720p.ts
Format                         : MPEG-TS
File size                      : 8.51 GiB
Duration                       : 1h 33mn
Overall bit rate mode          : Variable
Overall bit rate               : 13.0 Mbps
Maximum Overall bit rate       : 35.5 Mbps

Video
ID                             : 4113 (0x1011)
Menu ID                        : 1 (0x1)
Format                         : AVC
Format/Info                    : Advanced Video Codec
Format profile                 : High@L4.0
Format settings, CABAC         : Yes
Format settings, ReFrames      : 6 frames
Format settings, GOP           : M=4, N=33
Codec ID                       : 27
Duration                       : 1h 33mn
Bit rate mode                  : Variable
Bit rate                       : 11.7 Mbps
Maximum bit rate               : 40.0 Mbps
Width                          : 1 280 pixels
Height                         : 720 pixels
Display aspect ratio           : 16:9
Frame rate                     : 50.000 fps
Color space                    : YUV
Chroma subsampling             : 4:2:0
Bit depth                      : 8 bits
Scan type                      : Progressive
Bits/(Pixel*Frame)             : 0.253
Stream size                    : 7.62 GiB (90%)
Color primaries                : BT.709
Transfer characteristics       : BT.709
Matrix coefficients            : BT.709

Audio #1
ID                             : 4352 (0x1100)
Menu ID                        : 1 (0x1)
Format                         : MPEG Audio
Format version                 : Version 1
Format profile                 : Layer 2
Codec ID                       : 4
Duration                       : 1h 33mn
Bit rate mode                  : Constant
Bit rate                       : 256 Kbps
Channel(s)                     : 2 channels
Sampling rate                  : 48.0 KHz
Compression mode               : Lossy
Stream size                    : 171 MiB (2%)
Language                       : German

Audio #2
ID                             : 4353 (0x1101)
Menu ID                        : 1 (0x1)
Format                         : AC-3
Format/Info                    : Audio Coding 3
Mode extension                 : CM (complete main)
Format settings, Endianness    : Big
Codec ID                       : 129
Duration                       : 1h 33mn
Bit rate mode                  : Constant
Bit rate                       : 448 Kbps
Channel(s)                     : 2 channels
Channel positions              : Front: L R
Sampling rate                  : 48.0 KHz
Bit depth                      : 16 bits
Compression mode               : Lossy
Stream size                    : 300 MiB (3%)
Language                       : German

Скриншоты

Правила, инструкции, FAQ!!!
Торрент  Добавлен [18 янв 2014, 18:45] Скачать торрент Магнет ссылка
Скачать торрент
[ Размер 21.78 КБ / Просмотров 17 ]

Статус  
 
Размер  8.51 ГБ
Приватный: Нет (DHT включён)
.torrent скачан  3
Как залить торрент? | Как скачать Torrent? | Ошибка в торренте? Качайте магнет  


     Отправить личное сообщение
   
Страница 1 из 1
Показать сообщения за:  Поле сортировки  
Начать новую тему Ответить на тему

   Похожие торренты   Автор   Ответы   Просмотры   Последнее сообщение 
В этой теме нет новых непрочитанных сообщений. Скачать торрент Проверен Enter Shikari & Zebrahead - Rock'n'Heim 2013 [2013, Electronic/Post-hardcore/Punk rock/Alt. metal, HDTV 720p]

в форуме Концерты (HD-Video), Размер: 6.21 ГБ, Здоровье: 100%

Anonymous

0
2|0

32
0

23 окт 2016, 13:46

Anonymous Перейти к последнему сообщению

В этой теме нет новых непрочитанных сообщений. Скачать торрент Проверен Volbeat - Rock'n'Heim 2013 [2013, Heavy metal/Hard rock/Groove metal, HDTV 720p]

в форуме Концерты (HD-Video), Размер: 5.72 ГБ, Здоровье: 66%

Anonymous

0
4|6

35
2

23 окт 2016, 16:24

Anonymous Перейти к последнему сообщению

В этой теме нет новых непрочитанных сообщений. Скачать торрент Проверен Heaven Shall Burn - Rock'n'Heim 2013 [2013, Death metal/Metalcore/Deathcore/Melodic death meta, HDTV 720p]

в форуме Концерты (HD-Video), Размер: 6.06 ГБ, Здоровье: 100%

Anonymous

0
1|1

54
1

23 окт 2016, 10:26

Anonymous Перейти к последнему сообщению

В этой теме нет новых непрочитанных сообщений. Скачать торрент Проверен Tenacious D - Rock'n'Heim 2013 [2013, Comedy rock/Heavy metal/Hard rock/Acoustic metal, HDTV 720p]

в форуме Концерты (HD-Video), Размер: 5.92 ГБ, Здоровье: 100%

Anonymous

0
1|0

18
0

23 окт 2016, 15:56

Anonymous Перейти к последнему сообщению

В этой теме нет новых непрочитанных сообщений. Скачать торрент Проверен Heaven Shall Burn - Rock'n'Heim, Germany, 18.08.2013 [2013, Metalcore, HDTV 720p]

в форуме Концерты (HD-Video), Размер: 1.17 ГБ, Здоровье: 10%

Anonymous

0
2|19

22
1

23 окт 2016, 10:27

Anonymous Перейти к последнему сообщению



Сейчас этот форум просматривают: нет зарегистрированных пользователей и гости: 0


Вы не можете начинать темы
Вы не можете отвечать на сообщения
Вы не можете редактировать свои сообщения
Вы не можете удалять свои сообщения
Вы не можете добавлять вложения

Перейти:  
Ресурс не предоставляет электронные версии произведений, а занимается лишь коллекционированием и каталогизацией ссылок, присылаемых и публикуемых на форуме нашими читателями. Если вы являетесь правообладателем какого-либо представленного материала и не желаете чтобы ссылка на него находилась в нашем каталоге, свяжитесь с нами и мы незамедлительно удалим её. Файлы для обмена на трекере предоставлены пользователями сайта, и администрация не несёт ответственности за их содержание. Просьба не заливать файлы, защищенные авторскими правами, а также файлы нелегального содержания!
cron