На всех торрентах на трекере установлена скидка на скачивание в размере 100 процентов(а).
 Возможность скачивания торрента НЕ зависит от ограничений при низком ратио, низком аплоаде, требуемом ратио или требуемом аплоаде.


Начать новую тему Ответить на тему
Статистика раздачи
Размер: 5.01 ГБ | Добавлен: 07 июл 2013, 11:17 | Скачали: 5
Сидеров: 8  [0 байт/сек]    Личеров: 14  [0 байт/сек]
Пред. тема | След. тема 

Автор
Сообщение

СообщениеДобавлено: 07 июл 2013, 11:17 

Ответить с цитатой 

Жанр: Rock
Продолжительность: 01:07:58
Треклист:
01. Miss You
02. Midnight Rambler (with Mick Taylor)
03. 2000 Light Years From Home
04. Sympathy For The Devil
05. Start Me Up
06. Tumbling Dice
07. Brown Sugar
Encore:
08. You Can't Always Get What You Want
09. (I Can't Get No) Satisfaction (with Mick Taylor)
Качество: HDTV 1080i
Контейнер: TS
Видео кодек: H.264
Аудио кодек: AC3
Видео: AVC, 1920x1080, 16:9, 9828 Кбит/сек, 25,000 кадров/сек
Аудио: AC-3, 192 Кбит/сек, 48,0 КГц, 2 канала
Отчёт MediaInfo
Код:
Общее
Идентификатор                            : 1 (0x1)
Полное имя                               : C:\***\The Rolling Stones - Live at Glastonbury 2013.ts
Формат                                   : MPEG-TS
Размер файла                             : 5,01 Гбайт
Продолжительность                        : 1 ч. 7 м.
Режим общего битрейта                    : Переменный
Общий поток                              : 10,5 Мбит/сек
Максимальный общий битрейт               : 35,5 Мбит/сек[br][/br]Видео
Идентификатор                            : 4113 (0x1011)
Идентификатор меню                       : 1 (0x1)
Формат                                   : AVC
Формат/Информация                        : Advanced Video Codec
Профиль формата                          : High@L4.0
Параметр CABAC формата                   : Да
Параметр ReFrames формата                : 4 кадра
Идентификатор кодека                     : 27
Продолжительность                        : 1 ч. 7 м.
Вид битрейта                             : Переменный
Битрейт                                  : 9828 Кбит/сек
Максимальный битрейт                     : 40,0 Мбит/сек
Ширина                                   : 1920 пикселей
Высота                                   : 1080 пикселей
Соотношение сторон                       : 16:9
Частота кадров                           : 25,000 кадров/сек
Цветовое пространство                    : YUV
Субдискретизация насыщенности            : 4:2:0
Битовая глубина                          : 8 бит
Тип развёртки                            : MBAFF
Бит/(Пиксели*Кадры)                      : 0.190
Размер потока                            : 4,67 Гбайт (93%)
Основные цвета                           : BT.709
Характеристики трансфера                 : BT.709
Коэффициенты матрицы                     : BT.709[br][/br]Аудио
Идентификатор                            : 4352 (0x1100)
Идентификатор меню                       : 1 (0x1)
Формат                                   : AC-3
Формат/Информация                        : Audio Coding 3
Расширение режима                        : CM (complete main)
Параметр Endianness формата              : Big
Идентификатор кодека                     : 129
Продолжительность                        : 1 ч. 7 м.
Вид битрейта                             : Постоянный
Битрейт                                  : 192 Кбит/сек
Каналы                                   : 2 канала
Расположение каналов                     : Front: L R
Частота                                  : 48,0 КГц
Битовая глубина                          : 16 бит
Метод сжатия                             : С потерями
Задержка видео                           : -170 мс.
Размер потока                            : 93,4 Мбайт (2%)
Язык                                     : English
Скриншоты
Правила, инструкции, FAQ!!!
Торрент  Добавлен [07 июл 2013, 11:17] Скачать торрент Магнет ссылка
Скачать торрент
[ Размер 13.02 КБ / Просмотров 41 ]

Статус
Проверен Bionik (07 июл 2013, 11:19)
 
Размер  5.01 ГБ
Приватный: Нет (DHT включён)
.torrent скачан  5
Как залить торрент? | Как скачать Torrent? | Ошибка в торренте? Качайте магнет  


     Отправить личное сообщение
   
Страница 1 из 1
Показать сообщения за:  Поле сортировки  
Начать новую тему Ответить на тему

   Похожие торренты   Автор   Ответы   Просмотры   Последнее сообщение 
В этой теме нет новых непрочитанных сообщений. Скачать торрент Проверен "The Rolling Stones". Концерт в Гайд-парке / "The Rolling Stones". «Live In Hyde Park» (Пол Дагдейл/Paul Duggal) [2013, Rock, HDTV 1080i]

в форуме Концерты (HD-Video), Размер: 5.51 ГБ, Здоровье: 100%

Anonymous

0
19|5

199
3

23 окт 2016, 16:09

Anonymous Перейти к последнему сообщению

В этой теме нет новых непрочитанных сообщений. Скачать торрент Проверен Mumford & Sons - Live at Glastonbury 2013 [2013, Folk-Rock, Country, HDTV 1080i]

в форуме Концерты (HD-Video), Размер: 4.94 ГБ, Здоровье: 100%

Anonymous

0
2|1

24
0

23 окт 2016, 16:09

Anonymous Перейти к последнему сообщению

В этой теме нет новых непрочитанных сообщений. Скачать торрент Проверен The Rolling Stones • One More Shot Live (Live at Newark Prudential Center) [2012, Rock, HDTV 1080i]

в форуме Концерты (HD-Video), Размер: 20.5 ГБ, Здоровье: 29%

Anonymous

0
16|55

140
4

23 окт 2016, 16:19

Anonymous Перейти к последнему сообщению

В этой теме нет новых непрочитанных сообщений. Скачать торрент Проверен The Rolling Stones - 50 & Counting... (Live at Newark Prudential Center 15.12.12) [2012, Rock, HDTV 1080i, Feed)

в форуме Концерты (HD-Video), Размер: 44.65 ГБ, Здоровье: 45%

Anonymous

0
11|24

54
1

23 окт 2016, 10:27

Anonymous Перейти к последнему сообщению

В этой теме нет новых непрочитанных сообщений. Скачать торрент Проверен The Rolling Stones - The Stones In The Park [1969, Rock, HDTV 1080i]

в форуме Концерты (HD-Video), Размер: 6.28 ГБ, Здоровье: 53%

Anonymous

0
7|13

132
4

23 окт 2016, 19:37

Anonymous Перейти к последнему сообщению



Сейчас этот форум просматривают: нет зарегистрированных пользователей и гости: 0


Вы не можете начинать темы
Вы не можете отвечать на сообщения
Вы не можете редактировать свои сообщения
Вы не можете удалять свои сообщения
Вы не можете добавлять вложения

Перейти:  
Ресурс не предоставляет электронные версии произведений, а занимается лишь коллекционированием и каталогизацией ссылок, присылаемых и публикуемых на форуме нашими читателями. Если вы являетесь правообладателем какого-либо представленного материала и не желаете чтобы ссылка на него находилась в нашем каталоге, свяжитесь с нами и мы незамедлительно удалим её. Файлы для обмена на трекере предоставлены пользователями сайта, и администрация не несёт ответственности за их содержание. Просьба не заливать файлы, защищенные авторскими правами, а также файлы нелегального содержания!
cron