На всех торрентах на трекере установлена скидка на скачивание в размере 100 процентов(а).
 Возможность скачивания торрента НЕ зависит от ограничений при низком ратио, низком аплоаде, требуемом ратио или требуемом аплоаде.


Начать новую тему Ответить на тему
Статистика раздачи
Размер: 1.4 ГБ | Добавлен: 16 дек 2013, 12:23 | Скачали: 0
Сидеров: 1  [0 байт/сек]    Личеров: 0  [0 байт/сек]
Пред. тема | След. тема 

Автор
Сообщение

СообщениеДобавлено: 16 дек 2013, 12:23 

Ответить с цитатой 

Трое / 3

Год выпуска: 2012
Производство: Индия
Жанр: триллер, драма, мелодрама, детектив
Перевод: Профессиональный (многоголосый, закадровый)- Red Media
Субтитры: отдельным файлом (SRT)
Язык субтитров: Pусские (только песни) [перевод: Александра]
Дата мировой премьеры: 29 марта 2012
Режиссер: Айшвария Дхануш
Сценарий: Айшвария Дхануш
Продюсер: Кастхури Раджа
Актеры:: Дхануш, Шрути Хасан, Шивакартикьян, Сундер Раму, Прабху, Бхануприя, Рохини, Габриэлла
Описание фильма:
Это было романтично и... очень трагично! Они познакомились в колледже. Он завоевывал ее сердце молча, просто следуя за ней куда бы она ни пошла. В его взгляде читалась искренняя любовь, и ей ничего не оставалось, как покориться этому чувству. К счастью, их отношения не стали предметом осуждения. Друзья стали поддержкой, а родители проявили милость и дали добро на брак. Казалось, счастье не закончится никогда... Но роковой момент расплаты за этот подарок судьбы наступил внезапно. Его смерть стала для нее ударом, но страшнее всего было узнать правду, которая стала причиной потери любимого человека...

Продолжительность: 02:21:40
Качество: DVDRip
Формат: AVI
Видеокодек: Xvid
Битрейт видео: 1182 Kbit/s
Размер кадра:688 p x 320
Аудиокодек: AC3 2.0
Битрейт аудио: 224 Kbit/s

[code]
General
Complete name : D:\Торенты\TRETIY.2012.DVDRip.XviD.BwTorrents.bollywoodtime\TRETIY.2012.DVDRip.XviD.BwTorrents.bollywoodtime.avi
Format : AVI
Format/Info : Audio Video Interleave
File size : 1.40 GiB
Duration : 2h 21mn
Overall bit rate : 1 416 Kbps
Movie name : TRETIY.2012.DVDRip.XviD-soso4eg
Director : soso4eg

Writing application : VirtualDubMod 1.5.10.3 | www.virtualdub-fr.org || (build 2550/release)

Video
ID : 0
Format : MPEG-4 Visual
Format profile : Advanced Simple@L5
Format settings, BVOP : 2
Format settings, QPel : No
Format settings, GMC : No warppoints
Format settings, Matrix : Default (H.263)
Codec ID : XVID
Codec ID/Hint : XviD
Duration : 2h 21mn
Bit rate : 1 183 Kbps
Width : 688 pixels
Height : 320 pixels
Display aspect ratio : 2.2:1
Frame rate : 23.976 fps
Color space : YUV
Chroma subsampling : 4:2:0
Bit depth : 8 bits
Scan type : Progressive
Compression mode : Lossy
Bits/(Pixel*Frame) : 0.224
Stream size : 1.17 GiB (84%)
Writing library : XviD 1.2.0.dev47 (UTC 2006-11-01)

Audio
ID : 1
Format : AC-3
Format/Info : Audio Coding 3
Mode extension : CM (complete main)
Codec ID : 2000
Duration : 2h 21mn
Bit rate mode : Constant
Bit rate : 224 Kbps
Channel(s) : 2 channels
Channel positions : Front: L R
Sampling rate : 48.0 KHz
Bit depth : 16 bits
Compression mode : Lossy
Stream size : 227 MiB (16%)
Alignment : Split accross interleaves
Interleave, duration : 42 ms (1.00 video frame)
Interleave, preload duration : 500 ms

[/code ]
Скриншоты:

Правила, инструкции, FAQ!!!
Торрент  Добавлен [16 дек 2013, 12:23] Скачать торрент Магнет ссылка
Скачать торрент
[ Размер 14.93 КБ / Просмотров 22 ]

Статус  
 
Размер  1.4 ГБ
Приватный: Нет (DHT включён)
.torrent скачан  0
Как залить торрент? | Как скачать Torrent? | Ошибка в торренте? Качайте магнет  


     Отправить личное сообщение
   
Страница 1 из 1
Показать сообщения за:  Поле сортировки  
Начать новую тему Ответить на тему

   Похожие торренты   Автор   Ответы   Просмотры   Последнее сообщение 
В этой теме нет новых непрочитанных сообщений. Скачать торрент Проверен Никитин Юрий - Трое из Леса - 2. Трое из Леса в Песках [Владимир Князев (ЛИ), 2013, Боевое славянское фэнтези, 128 kbps], M4B

в форуме Аудиокниги (AAC, ALAC), Размер: 1.11 ГБ, Здоровье: 33%

Anonymous

0
1|3

145
1

28 авг 2016, 19:42

Anonymous Перейти к последнему сообщению

В этой теме нет новых непрочитанных сообщений. Скачать торрент Нас трое / Nous trois (Рено Бертран / Renaud Bertrand) [2010, Франция, мелодрама, DVDRip] Sub Rus + Original Fre

в форуме Драмы, Мелодрамы, Размер: 1.37 ГБ, Здоровье: 100%

Anonymous

0
7|1

57
0

13 фев 2014, 06:31

Anonymous Перейти к последнему сообщению

В этой теме нет новых непрочитанных сообщений. Скачать торрент Проверен [iPad] Трое из простоквашино. Сборник мультфильмов (Трое из Простоквашино; Каникулы в Простоквашино; Зима в Простоквашино; Бобик в гостях у Барбоса; Приключения Васи Куролесова) (Владимир Попов) [1977-1984.г, мультфильмы, BDRip]

в форуме Фильмы для iPod, iPhone, iPad, Размер: 2.19 ГБ, Здоровье: 100%

Anonymous

0
71|10

221
7

24 дек 2017, 23:04

Anonymous Перейти к последнему сообщению

В этой теме нет новых непрочитанных сообщений. Скачать торрент Проверен Киностудия "Союзмультфильм" / TWIK | Английский для детей. Трое из Простоквашино (На английском языке с русскими субтитрами) [1978-1984] DVDRip

в форуме Развивающее Видео для детей, Размер: 696.48 МБ, Здоровье: 100%

Anonymous

0
313|162

521
12

01 дек 2015, 00:10

Anonymous Перейти к последнему сообщению

В этой теме нет новых непрочитанных сообщений. Скачать торрент Проверен Соротокина Нина - Гардемарины, вперед! 01, Трое из навигацкой школы, или Гардемарины, вперед! [Некрасова Наталья, 2012 г., 96 kbps, MP3]

в форуме Детектив и Боевики, Размер: 774.24 МБ, Здоровье: 100%

Anonymous

0
14|3

197
6

20 ноя 2016, 18:36

Anonymous Перейти к последнему сообщению



Сейчас этот форум просматривают: нет зарегистрированных пользователей и гости: 0


Вы не можете начинать темы
Вы не можете отвечать на сообщения
Вы не можете редактировать свои сообщения
Вы не можете удалять свои сообщения
Вы не можете добавлять вложения

Перейти:  
Ресурс не предоставляет электронные версии произведений, а занимается лишь коллекционированием и каталогизацией ссылок, присылаемых и публикуемых на форуме нашими читателями. Если вы являетесь правообладателем какого-либо представленного материала и не желаете чтобы ссылка на него находилась в нашем каталоге, свяжитесь с нами и мы незамедлительно удалим её. Файлы для обмена на трекере предоставлены пользователями сайта, и администрация не несёт ответственности за их содержание. Просьба не заливать файлы, защищенные авторскими правами, а также файлы нелегального содержания!
cron