На всех торрентах на трекере установлена скидка на скачивание в размере 100 процентов(а).
 Возможность скачивания торрента НЕ зависит от ограничений при низком ратио, низком аплоаде, требуемом ратио или требуемом аплоаде.


Начать новую тему Ответить на тему
Статистика раздачи
Размер: 1.44 ГБ | Добавлен: 03 фев 2018, 19:06 | Скачали: 0
Сидеров: 0  [0 байт/сек]    Личеров: 0  [0 байт/сек]
Пред. тема | След. тема 

Автор
Сообщение

СообщениеДобавлено: 03 фев 2018, 19:06 

Ответить с цитатой 

Уличный кот по кличке Боб

A Street Cat Named Bob
«Sometimes it takes nine lives to save one»

Страна: Великобритания
Жанр: драма, комедия, семейный, биография
Год выпуска: 2016
Продолжительность: 01:42:48
Перевод: Профессиональный (многоголосый, закадровый) [Blu-ray CEE]
Субтитры: русские (форсированные, полные)
Оригинальная аудиодорожка: нет
Режиссер: Роджер Споттисвуд / Roger Spottiswoode
В ролях: Люк Тредэвэй, Bob the Cat, Рута Гедминтас, Джоанн Фроггатт, Энтони Хэд, Даррен Эванс, Тони Джайавардена, Адам Ричез, Льюэлла Гидеон, Лоррейн Эшборн, Акбар Курта, Джон Хеншоу
Описание:
Рассказ о том, как Джеймс Боуэн, восстанавливающийся от наркотической зависимости уличный музыкант, встретил рыжего уличного кота и его жизнь изменилась в лучшую сторону.


Автор рипа: stalkerok
Сэмпл
Качество видео: BDRip-AVC [A.Street.Cat.Named.Bob.2016.1080p.BluRay.AVC.DTS-HD.MA.5.1-FGT]
Формат видео: MKV
Видео: 1560 Кбит/сек, 966x404 (2.40:1), 23,976 кадр/сек, AVC
Аудио: русский, 448 Кбит/сек, 48 КГц, 16 бит, 5.1, AC3
Навигация по главам: есть

x264 [info]: frame I:1349 Avg QP:18.02 size: 43430
x264 [info]: frame P:34841 Avg QP:19.71 size: 16321
x264 [info]: frame B:111694 Avg QP:22.06 size: 5155
Общее
Уникальный идентификатор : 205604006321952921004032926435671170528 (0x9AADE428B50D977FAA83A10AE1165DE0)
Полное имя : M:\!!!!!!!!!!!!!!!!!!!\A Street Cat Named Bob (2016)\A.Street.Cat.Named.Bob.2016.BDRip-AVC.RUS.stalkerok.new-team.mkv
Формат : Matroska
Версия формата : Version 4 / Version 2
Размер файла : 1,44 Гбайт
Продолжительность : 1 ч. 42 м.
Общий поток : 2010 Кбит/сек
Название фильма : A Street Cat Named Bob (2016) (Rip by stalkerok)
Дата кодирования : UTC 2017-02-26 13:59:45
Программа кодирования : mkvmerge v8.6.1 ('Flying') 64bit
Библиотека кодирования : libebml v1.3.3 + libmatroska v1.4.4
Видео
Идентификатор : 1
Формат : AVC
Формат/Информация : Advanced Video Codec
Профиль формата : High@L4.1
Параметр CABAC формата : Да
Параметр ReFrames формата : 12 кадров
Идентификатор кодека : V_MPEG4/ISO/AVC
Продолжительность : 1 ч. 42 м.
Битрейт : 1560 Кбит/сек
Ширина : 966 пикселей
Высота : 404 пикселя
Соотношение сторон : 2,40:1
Режим частоты кадров : Постоянный
Частота кадров : 23,976 (24000/1001) кадра/сек
Цветовое пространство : YUV
Субдискретизация насыщенности : 4:2:0
Битовая глубина : 8 бит
Тип развёртки : Прогрессивная
Бит/(Пиксели*Кадры) : 0.167
Размер потока : 1,12 Гбайт (78%)
Заголовок : A Street Cat Named Bob (2016) (Rip by stalkerok)
Библиотека кодирования : x264 core 148 r2705+54 9f484c1 t_mod_Custom [8-bit@all X86_64]
Настройки программы : cabac=1 / ref=12 / deblock=1:-3:-2 / analyse=0x3:0x133 / me=umh / subme=10 / psy=1 / fade_compensate=0.00 / psy_rd=1.00:0.00 / mixed_ref=1 / me_range=32 / chroma_me=1 / trellis=2 / 8x8dct=1 / cqm=0 / deadzone=21,11 / fast_pskip=0 / chroma_qp_offset=-2 / threads=12 / lookahead_threads=3 / sliced_threads=0 / nr=0 / decimate=1 / interlaced=0 / bluray_compat=0 / constrained_intra=0 / fgo=0 / bframes=14 / b_pyramid=2 / b_adapt=2 / b_bias=0 / direct=3 / weightb=1 / open_gop=0 / weightp=2 / keyint=240 / keyint_min=23 / scenecut=40 / intra_refresh=0 / rc_lookahead=60 / rc=crf / mbtree=0 / crf=19.4000 / qcomp=0.65 / qpmin=0:0:0 / qpmax=69:69:69 / qpstep=4 / vbv_maxrate=50000 / vbv_bufsize=62500 / crf_max=0.0 / nal_hrd=none / filler=0 / ip_ratio=1.40 / pb_ratio=1.30 / aq=3:0.90 / aq-sensitivity=10.00 / aq-factor=1.00:1.00:1.00 / aq2=0 / aq3=0
Default : Да
Forced : Нет
Аудио
Идентификатор : 2
Формат : AC-3
Формат/Информация : Audio Coding 3
Расширение режима : CM (complete main)
Параметр Endianness формата : Big
Идентификатор кодека : A_AC3
Продолжительность : 1 ч. 42 м.
Вид битрейта : Постоянный
Битрейт : 448 Кбит/сек
Каналы : 6 каналов
Расположение каналов : Front: L C R, Side: L R, LFE
Частота : 48,0 КГц
Частота кадров : 31,250 кадров/сек (1536 spf)
Метод сжатия : С потерями
Размер потока : 329 Мбайт (22%)
Язык : Russian
Default : Да
Forced : Нет
Текст #1
Идентификатор : 3
Формат : UTF-8
Идентификатор кодека : S_TEXT/UTF8
Идентификатор кодека/Информация : UTF-8 Plain Text
Продолжительность : 1 ч. 41 м.
Битрейт : 1 бит/сек
Count of elements : 19
Размер потока : 857 байт (0%)
Заголовок : Forced
Язык : Russian
Default : Да
Forced : Нет
Текст #2
Идентификатор : 4
Формат : UTF-8
Идентификатор кодека : S_TEXT/UTF8
Идентификатор кодека/Информация : UTF-8 Plain Text
Продолжительность : 1 ч. 41 м.
Битрейт : 80 бит/сек
Count of elements : 1116
Размер потока : 60,3 Кбайт (0%)
Заголовок : Blu-ray CEE
Язык : Russian
Default : Нет
Forced : Нет
Меню
00:00:00.000 : en:Chapter 1
00:06:55.164 : en:Chapter 2
00:11:37.071 : en:Chapter 3
00:18:52.881 : en:Chapter 4
00:28:30.250 : en:Chapter 5
00:31:36.895 : en:Chapter 6
00:37:52.061 : en:Chapter 7
00:45:03.242 : en:Chapter 8
00:49:39.810 : en:Chapter 9
00:54:35.063 : en:Chapter 10
01:03:16.000 : en:Chapter 11
01:07:13.821 : en:Chapter 12
01:11:18.774 : en:Chapter 13
01:19:17.502 : en:Chapter 14
01:27:15.897 : en:Chapter 15
01:34:30.665 : en:Chapter 16
Правила, инструкции, FAQ!!!
Торрент  Добавлен [03 фев 2018, 19:06] Скачать торрент Магнет ссылка
Скачать торрент
[ Размер 15.02 КБ / Просмотров 93 ]

Статус
Проверен 
 
Размер  1.44 ГБ
Приватный: Нет (DHT включён)
.torrent скачан  0
Как залить торрент? | Как скачать Torrent? | Ошибка в торренте? Качайте магнет  


     Отправить личное сообщение
   
Страница 1 из 1
Показать сообщения за:  Поле сортировки  
Начать новую тему Ответить на тему

   Похожие торренты   Автор   Ответы   Просмотры   Последнее сообщение 
В этой теме нет новых непрочитанных сообщений. Скачать торрент Проверен Уличный кот по кличке Боб / A Street Cat Named Bob (Роджер Споттисвуд / Roger Spottiswoode) [2016, Великобритания, драма, комедия, семейный, BDRip-AVC] MVO + Sub (rus)

в форуме Фильмы 2016-2017, Размер: 745.93 МБ, Здоровье: 0%

Anonymous

0
0|0

28
0

03 фев 2018, 19:07

Anonymous Перейти к последнему сообщению

В этой теме нет новых непрочитанных сообщений. Скачать торрент Проверен Уличный кот по кличке Боб / A Street Cat Named Bob (Роджер Споттисвуд / Roger Spottiswoode) [2016, Великобритания, драма, комедия, семейный, BDRip-AVC] MVO + Original (eng) + Sub (rus, eng)

в форуме Фильмы 2016-2017, Размер: 2.16 ГБ, Здоровье: 100%

Anonymous

0
34|11

31
0

03 фев 2018, 21:12

Anonymous Перейти к последнему сообщению

В этой теме нет новых непрочитанных сообщений. Скачать торрент Проверен Уличный кот по кличке Боб / A Street Cat Named Bob (Роджер Споттисвуд / Roger Spottiswoode) [2016, Великобритания, драма, комедия, семейный, биография, BDRip-AVC] MVO + Sub Rus, Eng + Original Eng

в форуме Фильмы 2016-2017, Размер: 3.68 ГБ, Здоровье: 100%

Anonymous

0
35|11

42
0

03 фев 2018, 21:24

Anonymous Перейти к последнему сообщению

В этой теме нет новых непрочитанных сообщений. Скачать торрент Проверен Уличный кот по кличке Боб / A Street Cat Named Bob (Роджер Споттисвуд / Roger Spottiswood) [2016, Великобритания, драма, комедия, семейный, биография, BDRip] MVO

в форуме Фильмы 2016-2017, Размер: 739.18 МБ, Здоровье: 0%

Anonymous

0
0|0

14
0

03 фев 2018, 18:35

Anonymous Перейти к последнему сообщению

В этой теме нет новых непрочитанных сообщений. Скачать торрент Проверен Уличный кот по кличке Боб / A Street Cat Named Bob (Роджер Споттисвуд / Roger Spottiswood) [2016, Великобритания, драма, комедия, семейный, биография, BDRip] MVO

в форуме Фильмы 2016-2017, Размер: 1.45 ГБ, Здоровье: 0%

Anonymous

0
0|0

21
0

03 фев 2018, 21:08

Anonymous Перейти к последнему сообщению



Сейчас этот форум просматривают: нет зарегистрированных пользователей и гости: 2


Вы не можете начинать темы
Вы не можете отвечать на сообщения
Вы не можете редактировать свои сообщения
Вы не можете удалять свои сообщения
Вы не можете добавлять вложения

Перейти:  
Ресурс не предоставляет электронные версии произведений, а занимается лишь коллекционированием и каталогизацией ссылок, присылаемых и публикуемых на форуме нашими читателями. Если вы являетесь правообладателем какого-либо представленного материала и не желаете чтобы ссылка на него находилась в нашем каталоге, свяжитесь с нами и мы незамедлительно удалим её. Файлы для обмена на трекере предоставлены пользователями сайта, и администрация не несёт ответственности за их содержание. Просьба не заливать файлы, защищенные авторскими правами, а также файлы нелегального содержания!
cron