На всех торрентах на трекере установлена скидка на скачивание в размере 100 процентов(а).
 Возможность скачивания торрента НЕ зависит от ограничений при низком ратио, низком аплоаде, требуемом ратио или требуемом аплоаде.


Начать новую тему Ответить на тему
Статистика раздачи
Размер: 6.97 ГБ | Добавлен: 29 июл 2015, 23:35 | Скачали: 90
Сидеров: 82  [0 байт/сек]    Личеров: 28  [0 байт/сек]
Пред. тема | След. тема 

Автор
Сообщение

СообщениеДобавлено: 29 июл 2015, 23:35 

Ответить с цитатой 

Название: Возвращение Духа Натха
Оригинальное название: Bhoothnath Returns
Страна: Индия
Студия: B.R. Films, T-Series
Жанр: Фэнтези, драма, комедия
Год выпуска: 2014
Продолжительность: 02:31:09

Перевод: Профессиональный (многоголосый закадровый) SDI Media
Cубтитры: Rus, Eng
Оригинальная аудиодорожка: Hindi

Режиссер: Нитеш Тивари / Nitesh Tiwari

В ролях: Амитабх Баччан, Боман Ирани, Партх Бхалерао, Санджай Мишра, Уша Надкарни, Уша Джадхав, Анант Джог, Шанкар Сачдев, Виджай Маурья, Субрат Датта

Описание: Вернувшийся в Призрачный Мир, Дух Натх был встречен насмешками со стороны других призраков. Из-за его действий был подорван авторитет сообщества призраков. Чтобы вернуть себе уважение, Дух Натх должен вернуться в этот мир и напугать хоть одного ребенка. Но не все так просто. И дети не пугаются, и в стране столько проблем, что не время отдыхать в Призрачном Мире.



Тип релиза: BDRip 720p
Контейнер: MKV

Видео: MPEG-4 AVC, 4773 Кбит/с, 1280x544, 24,000 fps
Аудио: Rus, AC3, 192 kb/s (2 ch), 48 kHz
Аудио 2: Hin, DTS, 1510 kb/s (6 ch), 48 kHz
Формат субтитров: softsub (SRT)
x264 [info]: frame I:2151 Avg QP:14.08 size:122926
x264 [info]: frame P:44100 Avg QP:15.58 size: 51214
x264 [info]: frame B:171407 Avg QP:17.11 size: 17696

Format : Matroska
Format version : Version 4 / Version 2
File size : 6.97 GiB
Duration : 2h 31mn
Overall bit rate : 6 605 Kbps
Movie name : Призрак виллы Натхов 2. (Tonik)
Encoded date : UTC 2015-07-29 03:39:44
Writing application : mkvmerge v7.1.0 ('Good Love') 64bit built on Jul 27 2014 13:06:55
Writing library : libebml v1.3.0 + libmatroska v1.4.1
DURATION : 02:31:09.088000000
NUMBER_OF_FRAMES : 850227
NUMBER_OF_BYTES : 1710656724
_STATISTICS_WRITING_APP : mkvmerge v7.1.0 ('Good Love') 64bit built on Jul 27 2014 13:06:55
_STATISTICS_WRITING_DATE_UTC : 2015-07-29 03:39:44
_STATISTICS_TAGS : BPS DURATION NUMBER_OF_FRAMES NUMBER_OF_BYTES

Video
ID : 1
Format : AVC
Format/Info : Advanced Video Codec
Format profile : High@L4.1
Format settings, CABAC : Yes
Format settings, ReFrames : 12 frames
Codec ID : V_MPEG4/ISO/AVC
Duration : 2h 31mn
Bit rate : 4 773 Kbps
Width : 1 280 pixels
Height : 544 pixels
Display aspect ratio : 2.35:1
Frame rate mode : Constant
Frame rate : 24.000 fps
Color space : YUV
Chroma subsampling : 4:2:0
Bit depth : 8 bits
Scan type : Progressive
Bits/(Pixel*Frame) : 0.286
Stream size : 5.04 GiB (72%)
Title : Tonik
Writing library : x264 core 146 r2538 121396c
Encoding settings : cabac=1 / ref=12 / deblock=1:-3:-3 / analyse=0x3:0x133 / me=umh / subme=11 / psy=1 / psy_rd=1.00:0.00 / mixed_ref=1 / me_range=32 / chroma_me=1 / trellis=2 / 8x8dct=1 / cqm=0 / deadzone=21,11 / fast_pskip=0 / chroma_qp_offset=-2 / threads=12 / lookahead_threads=3 / sliced_threads=0 / nr=0 / decimate=1 / interlaced=0 / bluray_compat=0 / constrained_intra=0 / bframes=10 / b_pyramid=2 / b_adapt=2 / b_bias=0 / direct=1 / weightb=1 / open_gop=0 / weightp=2 / keyint=250 / keyint_min=24 / scenecut=40 / intra_refresh=0 / rc=crf / mbtree=0 / crf=15.5 / qcomp=0.60 / qpmin=0 / qpmax=69 / qpstep=4 / ip_ratio=1.40 / pb_ratio=1.30 / aq=1:1.00
Language : Hindi
Default : Yes
Forced : No
DURATION : 02:31:09.084000000
NUMBER_OF_FRAMES : 217658
NUMBER_OF_BYTES : 5556178463
_STATISTICS_WRITING_APP : mkvmerge v7.1.0 ('Good Love') 64bit built on Jul 27 2014 13:06:55
_STATISTICS_WRITING_DATE_UTC : 2015-07-29 03:39:44
_STATISTICS_TAGS : BPS DURATION NUMBER_OF_FRAMES NUMBER_OF_BYTES

Audio #1
ID : 2
Format : AC-3
Format/Info : Audio Coding 3
Mode extension : CM (complete main)
Format settings, Endianness : Big
Codec ID : A_AC3
Duration : 2h 31mn
Bit rate mode : Constant
Bit rate : 192 Kbps
Channel(s) : 2 channels
Channel positions : Front: L R
Sampling rate : 48.0 KHz
Bit depth : 16 bits
Compression mode : Lossy
Stream size : 208 MiB (3%)
Title : SDI Media
Language : Russian
Default : Yes
Forced : No

Audio #2
ID : 3
Format : DTS
Format/Info : Digital Theater Systems
Mode : 16
Format settings, Endianness : Big
Codec ID : A_DTS
Duration : 2h 31mn
Bit rate mode : Constant
Bit rate : 1 509 Kbps
Channel(s) : 6 channels
Channel positions : Front: L C R, Side: L R, LFE
Sampling rate : 48.0 KHz
Bit depth : 24 bits
Compression mode : Lossy
Stream size : 1.59 GiB (23%)
Language : Hindi
Default : No
Forced : No

Text #1
ID : 4
Format : UTF-8
Codec ID : S_TEXT/UTF8
Codec ID/Info : UTF-8 Plain Text
Title : На песни
Language : Russian
Default : Yes
Forced : No

Text #2
ID : 5
Format : UTF-8
Codec ID : S_TEXT/UTF8
Codec ID/Info : UTF-8 Plain Text
Title : Full
Language : Russian
Default : No
Forced : No

Text #3
ID : 6
Format : UTF-8
Codec ID : S_TEXT/UTF8
Codec ID/Info : UTF-8 Plain Text
Language : English
Default : No
Forced : No




Правила, инструкции, FAQ!!!
Торрент  Добавлен [29 июл 2015, 23:35] Скачать торрент Магнет ссылка
Скачать торрент
[ Размер 18.23 КБ / Просмотров 26 ]

Статус
Проверен 
 
Размер  6.97 ГБ
Приватный: Нет (DHT включён)
.torrent скачан  90
Как залить торрент? | Как скачать Torrent? | Ошибка в торренте? Качайте магнет  


     Отправить личное сообщение
   
Страница 1 из 1
Показать сообщения за:  Поле сортировки  
Начать новую тему Ответить на тему

   Похожие торренты   Автор   Ответы   Просмотры   Последнее сообщение 
В этой теме нет новых непрочитанных сообщений. Скачать торрент Проверен Призрак виллы Натхов 2 / Bhoothnath Returns (2014) HDRip | L

в форуме Индийское кино, Размер: 2.05 ГБ, Здоровье: 25%

Гость

0
9|36

322
1

21 июн 2015, 13:31

Гость Перейти к последнему сообщению

В этой теме нет новых непрочитанных сообщений. Скачать торрент Проверен Королевский детектив 5: Возвращение принцессы. Коллекционное издание / Royal Detective 5: The Princess Returns. CE (2018) PC

в форуме Приключения и квесты|я ищу, Размер: 1018.36 МБ, Здоровье: 100%

Anonymous

0
2|1

132
0

03 мар 2018, 17:47

Anonymous Перейти к последнему сообщению

В этой теме нет новых непрочитанных сообщений. Скачать торрент Возвращение буратино (2013) BDRip [H.264/720p-LQ]

в форуме Отечественные мультфильмы (HD Video), Размер: 2.19 ГБ, Здоровье: 100%

Anonymous

0
23|2

208
2

02 фев 2014, 21:07

Anonymous Перейти к последнему сообщению

В этой теме нет новых непрочитанных сообщений. Скачать торрент Герой возвращается / Hero Returns (2014) PC

в форуме Приключения и квесты|я ищу, Размер: 858.19 МБ, Здоровье: 100%

Anonymous

0
17|0

127
151

05 янв 2014, 20:54

Anonymous Перейти к последнему сообщению

В этой теме нет новых непрочитанных сообщений. Скачать торрент Проверен (RAC) М.Д.П. (Моя Дерзкая Правда) - Воины Духа - 2014, MP3, 320 kbps

в форуме Русский Рок, Размер: 67.67 МБ, Здоровье: 100%

Anonymous

0
1|0

64
2

22 авг 2016, 10:37

Anonymous Перейти к последнему сообщению



Сейчас этот форум просматривают: нет зарегистрированных пользователей и гости: 0


Вы не можете начинать темы
Вы не можете отвечать на сообщения
Вы не можете редактировать свои сообщения
Вы не можете удалять свои сообщения
Вы не можете добавлять вложения

Перейти:  
Ресурс не предоставляет электронные версии произведений, а занимается лишь коллекционированием и каталогизацией ссылок, присылаемых и публикуемых на форуме нашими читателями. Если вы являетесь правообладателем какого-либо представленного материала и не желаете чтобы ссылка на него находилась в нашем каталоге, свяжитесь с нами и мы незамедлительно удалим её. Файлы для обмена на трекере предоставлены пользователями сайта, и администрация не несёт ответственности за их содержание. Просьба не заливать файлы, защищенные авторскими правами, а также файлы нелегального содержания!
cron