На всех торрентах на трекере установлена скидка на скачивание в размере 100 процентов(а).
 Возможность скачивания торрента НЕ зависит от ограничений при низком ратио, низком аплоаде, требуемом ратио или требуемом аплоаде.


Начать новую тему Ответить на тему
Статистика раздачи
Размер: 4.35 ГБ | Добавлен: 18 ноя 2012, 23:48 | Скачали: 46
Сидеров: 23  [0 байт/сек]    Личеров: 0  [0 байт/сек]
Пред. тема | След. тема 

Автор
Сообщение

СообщениеДобавлено: 18 ноя 2012, 23:48 

Ответить с цитатой 

Информация о фильме
Название: Within Temptation - Black Symphony
Оригинальное название: Within Temptation & The Metropole Orchestra: Black Symphony
Год выхода: 2008
Жанр: Концерт, Rock, Metal
Режиссер: Hans Pannecoucke
В ролях: Sharon den Adel, Robert Westerholt, Martijn Spierenburg, Ruud Jolie, Stephen van Haestregt, Jeroen van Veen, Keith Caputo, Anneke van Giersbergen, George Oosthoek

О фильме:
Black Symphony — концертный альбом голландской симфоник-метал группы Within Temptation. Релиз состоялся 22-24 сентября 2008 года.
Это специальный концерт группы при участии «The Metropole Orchestra», «the Pa’dam Choir» и специальных гостей: Джордж Осток (экс-Orphanage), Аннеке ван Гирсберген из Agua de Annique и Кейт Капуто из Life of Agony. 7 февраля 2008 года концерт был записан на 14 HD-камер на стадионе Ahoy в Роттердаме.

Треклист:
01. Overture
02. Jillian (I'd Give My Heart)
03. The Howling
04. Stand My Ground
05. The Cross
06. What Have You Done (feat. Keith Caputo)
07. Hand Of Sorrow
08. The Heart Of Everything
09. Forgiven
10. Somewhere (feat. Anneke van Giersbergen)
11. The Swan Song
12. Memories
13. Our Solemn Hour
14. The Other Half (Of Me) (feat. George Oosthoek)
15. Frozen
16. The Promise
17. Angels
18. Mother Earth
19. The Truth Beneath The Rose
20. Deceiver Of Fools
21. All I Need
22. Ice Queen




Страна: Нидерланды
Студия: GUN Records
Продолжительность: 2h 6min
Перевод: Не требуется.

Файл
Формат:MKV
Качество: BDRip 720p
Видео: MPEG-4 AVC, x264, 1280x720, 3 407 Kbps , 25,000 кадр/сек, 0.123 Бит/(Пиксели*Кадры)
Звук: DTS 6 channels (96.0 KHz / 48.0 KHz / 1 510 Kbps )

General

Format : Matroska
File size : 4.35 GiB
Duration : 2h 6mn
Overall bit rate : 4 920 Kbps

Video

Format : AVC
Format/Info : Advanced Video Codec
Format profile : High@L4.1
Format settings, CABAC : Yes
Format settings, ReFrames : 3 frames
Codec ID : V_MPEG4/ISO/AVC
Duration : 2h 6mn
Bit rate : 3 407 Kbps
Width : 1 280 pixels
Height : 720 pixels
Display aspect ratio : 16:9
Frame rate mode : Constant
Frame rate : 29.970 fps
Color space : YUV
Chroma subsampling : 4:2:0
Bit depth : 8 bits
Scan type : Progressive
Bits/(Pixel*Frame) : 0.123
Stream size : 2.93 GiB (67%)
Language : English
Default : Yes
Forced : No

Audio

Format : DTS
Format/Info : Digital Theater Systems
Format profile : 96/24 / Core
Codec ID : A_DTS
Duration : 2h 6mn
Bit rate mode : Constant
Bit rate : 1 510 Kbps
Channel(s) : 6 channels
Channel positions : Front: L C R, Side: L R, LFE
Sampling rate : 96.0 KHz / 48.0 KHz
Bit depth : 24 bits
Compression mode : Lossy
Stream size : 1.33 GiB (31%)
Default : Yes
Forced : No


Правила, инструкции, FAQ!!!
Торрент  Добавлен [18 ноя 2012, 23:48] Скачать торрент Магнет ссылка
Скачать торрент
[ Размер 11.46 КБ / Просмотров 40 ]

Статус
Проверен 
 
Размер  4.35 ГБ
Приватный: Нет (DHT включён)
.torrent скачан  46
Как залить торрент? | Как скачать Torrent? | Ошибка в торренте? Качайте магнет  


     Отправить личное сообщение
   
Страница 1 из 1
Показать сообщения за:  Поле сортировки  
Начать новую тему Ответить на тему

   Похожие торренты   Автор   Ответы   Просмотры   Последнее сообщение 
В этой теме нет новых непрочитанных сообщений. Скачать торрент Проверен Within Temptation - Black Symphony [2008, Gothic Metal, BDRip]

в форуме Концерты (HD-Video), Размер: 7.79 ГБ, Здоровье: 100%

Anonymous

0
3|1

50
2

23 окт 2016, 13:49

Anonymous Перейти к последнему сообщению

В этой теме нет новых непрочитанных сообщений. Скачать торрент Проверен Within Temptation - Black Symphony [2008 г., Gothic Metal, BDRip]

в форуме Концерты (HD-Video), Размер: 4.35 ГБ, Здоровье: 100%

Гость

0
27|8

88
2

29 апр 2015, 19:31

Гость Перейти к последнему сообщению

В этой теме нет новых непрочитанных сообщений. Скачать торрент Проверен Within Temptation - Black Symphony [2008, Gothic Metal, BDRip, 1080p]

в форуме Концерты (HD-Video), Размер: 10.28 ГБ, Здоровье: 100%

Anonymous

0
29|10

54
0

23 окт 2016, 16:16

Anonymous Перейти к последнему сообщению

В этой теме нет новых непрочитанных сообщений. Скачать торрент Проверен Within Temptation - Black Symphony [2008, Symphonic / Gothic Metal, BDRip]

в форуме Концерты (HD-Video), Размер: 7.91 ГБ, Здоровье: 100%

Anonymous

0
2|0

42
0

23 окт 2016, 13:49

Anonymous Перейти к последнему сообщению

В этой теме нет новых непрочитанных сообщений. Скачать торрент Проверен Within Temptation - Black Symphony [2008, Gothic Metal, Blu-Ray]

в форуме Концерты (HD-Video), Размер: 43.26 ГБ, Здоровье: 100%

Anonymous

0
28|9

60
1

23 окт 2016, 18:47

Anonymous Перейти к последнему сообщению



Сейчас этот форум просматривают: нет зарегистрированных пользователей и гости: 2


Вы не можете начинать темы
Вы не можете отвечать на сообщения
Вы не можете редактировать свои сообщения
Вы не можете удалять свои сообщения
Вы не можете добавлять вложения

Перейти:  
Ресурс не предоставляет электронные версии произведений, а занимается лишь коллекционированием и каталогизацией ссылок, присылаемых и публикуемых на форуме нашими читателями. Если вы являетесь правообладателем какого-либо представленного материала и не желаете чтобы ссылка на него находилась в нашем каталоге, свяжитесь с нами и мы незамедлительно удалим её. Файлы для обмена на трекере предоставлены пользователями сайта, и администрация не несёт ответственности за их содержание. Просьба не заливать файлы, защищенные авторскими правами, а также файлы нелегального содержания!
cron