На всех торрентах на трекере установлена скидка на скачивание в размере 100 процентов(а).
 Возможность скачивания торрента НЕ зависит от ограничений при низком ратио, низком аплоаде, требуемом ратио или требуемом аплоаде.


Начать новую тему Ответить на тему
Статистика раздачи
Размер: 1.94 ГБ | Добавлен: 16 ноя 2012, 23:38 | Скачали: 13
Сидеров: 16  [0 байт/сек]    Личеров: 1  [0 байт/сек]
Пред. тема | След. тема 

Автор
Сообщение

СообщениеДобавлено: 16 ноя 2012, 23:38 

Ответить с цитатой 

Информация о фильме
Название: ZAZ - Live Tour: Sans Tsu Tsou
Оригинальное название: ZAZ - Live Tour: Sans Tsu Tsou
Год выхода: 2011
Жанр: nu jazz, chanson, soul, french, female vocal
Режиссер: Не известен
В ролях: Изабе́ль Жеффруа́

О фильме:
Долгожданный DVD «Sans Tsu Tsou» записан в ходе европейского тура певицы и включает в себя свыше полутора часов музыки. Как и ее альбом-бестселлер «Zaz», это заявка на создание нового стиля, включающего в себя элементы соула, джаза, французского шансона и цыганской музыки. Впрочем, главный козырь – открытость и непосредственность певицы, силой своего таланта создающей интимную и доверительную атмосферу с первых же тактов песни.

Треклист:
01. Les passants
02. J'aime à nouveau
03. Le long de la route
04. Prends garde à ta langue
05. Dans ma rue
06. Port Coton
07. La fée
08. Ma folie
09. Trop sensible
10. J'arrive pas
11. Eblouie par la nuit
12. Je veux
13. Je saute partout
14. Pray the sunshine
15. Ni oui ni non
16. Aux détenteurs
Доп. информация: Разбивка на главы по трекам: есть

Формат : Matroska
Размер файла : 1,94 Гбайт
Продолжительность : 1 ч. 24 м.
Общий поток : 3269 Кбит/сек
Программа кодирования : mkvmerge v5.2.0 ('I can't explain') built on Dec 18 2011 18:12:03
Библиотека кодирования : libebml v1.2.3 + libmatroska v1.3.0
Видео
Идентификатор : 1
Формат : AVC
Формат/Информация : Advanced Video Codec
Профиль формата : High@L3.0
Параметр CABAC формата : Нет
Параметр ReFrames формата : 4 кадры
Режим смешивания : Header stripping
Идентификатор кодека : V_MPEG4/ISO/AVC
Продолжительность : 1 ч. 24 м.
Битрейт : 2500 Кбит/сек
Ширина : 720 пикс.
Высота : 400 пикс.
Соотношение сторон : 16:9
Режим частоты кадров : Переменный
Частота кадров : 25,000 кадр/сек
Цветовое пространство : YUV
Подвыборка цветности : 4:2:0
Битовая глубина : 8 бит
Тип развёртки : Прогрессивная
Бит/(Пиксели*Кадры) : 0.347
Размер потока : 1,45 Гбайт (75%)
Библиотека кодирования : x264 core 120
Настройки программы : cabac=0 / ref=3 / deblock=1:0:0 / analyse=0x3:0x113 / me=umh / subme=9 / psy=1 / psy_rd=1.00:0.00 / mixed_ref=1 / me_range=32 / chroma_me=1 / trellis=0 / 8x8dct=1 / cqm=0 / deadzone=21,11 / fast_pskip=1 / chroma_qp_offset=-2 / threads=3 / sliced_threads=0 / nr=0 / decimate=1 / interlaced=0 / bluray_compat=0 / constrained_intra=0 / bframes=6 / b_pyramid=2 / b_adapt=2 / b_bias=0 / direct=3 / weightb=1 / open_gop=0 / weightp=0 / keyint=250 / keyint_min=25 / scenecut=40 / intra_refresh=0 / rc_lookahead=10 / rc=2pass / mbtree=1 / bitrate=2500 / ratetol=1.0 / qcomp=0.60 / qpmin=3 / qpmax=69 / qpstep=4 / cplxblur=20.0 / qblur=0.5 / vbv_maxrate=9500 / vbv_bufsize=9500 / nal_hrd=none / ip_ratio=1.40 / aq=1:1.00
Язык : English
Основные цвета : BT.601-6 525, BT.1358 525, BT.1700 NTSC, SMPTE 170M
Характеристики трансфера : BT.709-5, BT.1361
Коэффициенты матрицы : BT.601-6 525, BT.1358 525, BT.1700 NTSC, SMPTE 170M
Аудио #1
Идентификатор : 2
Формат : AC-3
Формат/Информация : Audio Coding 3
Расширение режима : CM (complete main)
Режим смешивания : Header stripping
Идентификатор кодека : A_AC3
Продолжительность : 1 ч. 24 м.
Вид битрейта : Постоянный
Битрейт : 448 Кбит/сек
Канал(ы) : 6 канала(ов)
Расположение каналов : Front: L C R, Side: L R, LFE
Частота : 48,0 КГц
Битовая глубина : 16 бит
Метод сжатия : С потерями
Размер потока : 272 Мбайт (14%)
Язык : French
Аудио #2
Идентификатор : 3
Формат : AC-3
Формат/Информация : Audio Coding 3
Расширение режима : CM (complete main)
Режим смешивания : Header stripping
Идентификатор кодека : A_AC3
Продолжительность : 1 ч. 24 м.
Вид битрейта : Постоянный
Битрейт : 320 Кбит/сек
Канал(ы) : 2 канала(ов)
Расположение каналов : Front: L R
Частота : 48,0 КГц
Битовая глубина : 16 бит
Метод сжатия : С потерями
Размер потока : 194 Мбайт (10%)
Язык : French
Меню
00:00:00.000 : :01. Les passants
00:04:46.440 : :02. J'aime à nouveau
00:10:01.240 : :03. Le long de la route
00:15:37.800 : :04. Prends garde à ta langue
00:19:51.120 : :05. Dans ma rue
00:24:37.480 : :06. Port Coton
00:28:04.280 : :07. La fée
00:32:47.920 : :08. Ma folie
00:39:32.440 : :09. Trop sensible
00:43:42.280 : :10. J'arrive pas
00:48:21.240 : :11. Eblouie par la nuit
00:55:09.520 : :12. Je veux
01:00:00.760 : :13. Je saute partout
01:03:43.360 : :14. Pray the sunshine
01:08:20.640 : :15. Ni oui ni non
01:18:26.520 : :16. Aux détenteurs
01:22:49.200 : :The and
01:24:57.600 : :Chapter 18




Страна: France
Студия: Sony Music
Продолжительность: 01:24:58
Перевод: Оригинальный

Файл
Формат: mkv
Кодек: H.264
Качество: DVDRip
Видео: AVC720:400 пикс16:92500 Кбит/сек25,000 кадр/сек
Звук: (1)AC-3448 Кбит/сек48,0 КГц6 кан (2)AC-3320 Кбит/сек48,0 КГц2 кан

Правила, инструкции, FAQ!!!
Торрент  Добавлен [16 ноя 2012, 23:38] Скачать торрент Магнет ссылка
Скачать торрент
[ Размер 19.92 КБ / Просмотров 26 ]

Статус
Проверен 
 
Размер  1.94 ГБ
Приватный: Нет (DHT включён)
.torrent скачан  13
Как залить торрент? | Как скачать Torrent? | Ошибка в торренте? Качайте магнет  


     Отправить личное сообщение
   
Страница 1 из 1
Показать сообщения за:  Поле сортировки  
Начать новую тему Ответить на тему

   Похожие торренты   Автор   Ответы   Просмотры   Последнее сообщение 
В этой теме нет новых непрочитанных сообщений. Скачать торрент Проверен Delta Goodrem The Visualise Tour Live in Sydney concert [2006, POPmusic, DVDRip]

в форуме Концерты (DVD-Video), Размер: 4.32 ГБ, Здоровье: 100%

Anonymous

0
1|0

21
0

12 ноя 2017, 01:18

Anonymous Перейти к последнему сообщению

В этой теме нет новых непрочитанных сообщений. Скачать торрент Проверен Laurence Mortier / Лоранс Мортье - Sans lait sans se priver / Без молока не значит без удовольствия [2010, PDF, FRA]

в форуме Кулинария, Размер: 31.01 МБ, Здоровье: 100%

Anonymous

0
1|1

21
1

18 окт 2016, 23:34

Anonymous Перейти к последнему сообщению

В этой теме нет новых непрочитанных сообщений. Скачать торрент Проверен (Symphonic Prog) Renaissance - Tour 2011 Live in Concert 2CD+DVD - 2011, WavPack (iso.wv), lossless

в форуме Progressive & Art-Rock, Размер: 677.82 МБ, Здоровье: 100%

Anonymous

0
3|1

16
1

30 авг 2016, 22:27

Anonymous Перейти к последнему сообщению

В этой теме нет новых непрочитанных сообщений. Скачать торрент Проверен (Classic Rock) Eagles - Live In Tokyo Dome, Japan Tour 2011 (3CD) (Bootleg) - 2011, MP3, 192 kbps

в форуме Classic Rock & Hard Rock, Размер: 287.74 МБ, Здоровье: 100%

Anonymous

0
2|0

21
0

14 ноя 2016, 19:44

Anonymous Перейти к последнему сообщению

В этой теме нет новых непрочитанных сообщений. Скачать торрент Проверен (Experimental Rock) Blue Man Group - The Complex Rock Tour Live (DVD) - 2004 (DVDRip), MP3, 224 kbps

в форуме Progressive & Art-Rock, Размер: 143.85 МБ, Здоровье: 100%

Anonymous

0
2|0

40
0

22 сен 2017, 22:08

Anonymous Перейти к последнему сообщению



Сейчас этот форум просматривают: нет зарегистрированных пользователей и гости: 0


Вы не можете начинать темы
Вы не можете отвечать на сообщения
Вы не можете редактировать свои сообщения
Вы не можете удалять свои сообщения
Вы не можете добавлять вложения

Перейти:  
Ресурс не предоставляет электронные версии произведений, а занимается лишь коллекционированием и каталогизацией ссылок, присылаемых и публикуемых на форуме нашими читателями. Если вы являетесь правообладателем какого-либо представленного материала и не желаете чтобы ссылка на него находилась в нашем каталоге, свяжитесь с нами и мы незамедлительно удалим её. Файлы для обмена на трекере предоставлены пользователями сайта, и администрация не несёт ответственности за их содержание. Просьба не заливать файлы, защищенные авторскими правами, а также файлы нелегального содержания!
cron